Richard Strauss - Der Rosenkavalier / Рихард Штраус - Кавалер розы (Weigle, Fleming, Garanca, Carsen) [2017, opera, HDTVRip] sub: rus, eng, fre, ita, spa, ger, swe


Статистика роздачі [Оновити пиров]
Розмір:  3,63 GB   |    Зареєстрований:  1 рік   |    Скачано:  0 раз

Повного джерела не було: Ніколи

by Паночка ®
09-Бер-2018 20:19


Richard Strauss - Der Rosenkavalier / Рихард Штраус - Кавалер розы (Weigle, Fleming, Garanca, Carsen) [2017, opera, HDTVRip] sub: rus, eng, fre, ita, spa, ger, swe

Richard Strauss - Der Rosenkavalier / Рихард Штраус - Кавалер розы
Год выпуска: 2017
Лейбл: Live in HD
Страна-производитель: США
Жанр: opera
Продолжительность: 04:04:09
Язык: немецкий
Субтитры: rus, eng, fre, ita, spa, ger, swe - отключаемые, в составе контейнера
Режиссер: Robert Carsen
Дирижер: Sebastian Weigle
Исполнители:
MARSCHALLIN - Renée Fleming
OCTAVIAN - Elīna Garanča
A SINGER - Matthew Polenzani
FANINAL - Markus Brück
BARON OCHS - Günther Groissböck
SOPHIE - Erin Morley
Оркестр и хор - Metropolitan Opera
Доп. информация: Спасибо Mauricelugher за запись исходника!
Качество видео: HDTVRip-AVC
Формат/Контейнер: MKV
Видео кодек: H.264
Аудио кодек: AC3
Видео поток: 960x540 25fps 1387 Kbps crf=19.0
Аудио поток: 48000Hz 6ch 448Kbps

MI

Format : Matroska
Format version : Version 2
File size : 1.10 GiB
Duration : 1h 24mn
Overall bit rate : 1 872 Kbps
Encoded date : UTC 2017-05-18 21:12:15
Writing application : mkvmerge v5.8.0 ('No Sleep / Pillow') built on Sep 2 2012 15:37:04
Writing library : libebml v1.2.3 + libmatroska v1.3.0
Video
ID : 1
Format : AVC
Format/Info : Advanced Video Codec
Format profile : [email protected]
Format settings, CABAC : Yes
Format settings, ReFrames : 8 frames
Codec ID : V_MPEG4/ISO/AVC
Duration : 1h 24mn
Bit rate : 1 387 Kbps
Width : 960 pixels
Height : 540 pixels
Display aspect ratio : 16:9
Frame rate mode : Constant
Frame rate : 25.000 fps
Color space : YUV
Chroma subsampling : 4:2:0
Bit depth : 8 bits
Scan type : Progressive
Bits/(Pixel*Frame) : 0.107
Stream size : 834 MiB (74%)
Writing library : x264 core 125 r2208 d9d2288
Encoding settings : cabac=1 / ref=8 / deblock=1:-1:-1 / analyse=0x3:0x133 / me=umh / subme=9 / psy=1 / psy_rd=1.00:0.10 / mixed_ref=1 / me_range=24 / chroma_me=1 / trellis=2 / 8x8dct=1 / cqm=0 / deadzone=21,11 / fast_pskip=1 / chroma_qp_offset=-3 / threads=6 / lookahead_threads=1 / sliced_threads=0 / nr=0 / decimate=1 / interlaced=0 / bluray_compat=0 / constrained_intra=0 / bframes=6 / b_pyramid=2 / b_adapt=2 / b_bias=0 / direct=3 / weightb=1 / open_gop=0 / weightp=2 / keyint=250 / keyint_min=25 / scenecut=40 / intra_refresh=0 / rc_lookahead=60 / rc=crf / mbtree=1 / crf=19.0 / qcomp=0.60 / qpmin=0 / qpmax=69 / qpstep=4 / ip_ratio=1.40 / aq=1:1.00
Default : Yes
Forced : No
Audio
ID : 2
Format : AC-3
Format/Info : Audio Coding 3
Mode extension : CM (complete main)
Format settings, Endianness : Big
Codec ID : A_AC3
Duration : 1h 24mn
Bit rate mode : Constant
Bit rate : 448 Kbps
Channel(s) : 6 channels
Channel positions : Front: L C R, Side: L R, LFE
Sampling rate : 48.0 KHz
Bit depth : 16 bits
Compression mode : Lossy
Stream size : 270 MiB (24%)
Language : English
Default : Yes
Forced : No
Text #1
ID : 3
Format : UTF-8
Codec ID : S_TEXT/UTF8
Codec ID/Info : UTF-8 Plain Text
Language : Russian
Default : Yes
Forced : No
Text #2
ID : 4
Format : UTF-8
Codec ID : S_TEXT/UTF8
Codec ID/Info : UTF-8 Plain Text
Language : English
Default : No
Forced : No
Text #3
ID : 5
Format : UTF-8
Codec ID : S_TEXT/UTF8
Codec ID/Info : UTF-8 Plain Text
Language : French
Default : No
Forced : No
Text #4
ID : 6
Format : UTF-8
Codec ID : S_TEXT/UTF8
Codec ID/Info : UTF-8 Plain Text
Language : German
Default : No
Forced : No
Text #5
ID : 7
Format : UTF-8
Codec ID : S_TEXT/UTF8
Codec ID/Info : UTF-8 Plain Text
Language : Italian
Default : No
Forced : No
Text #6
ID : 8
Format : UTF-8
Codec ID : S_TEXT/UTF8
Codec ID/Info : UTF-8 Plain Text
Language : Spanish
Default : No
Forced : No
Text #7
ID : 9
Format : UTF-8
Codec ID : S_TEXT/UTF8
Codec ID/Info : UTF-8 Plain Text
Language : Swedish
Default : No
Forced : No

Скриншоты




Ви не можете починати теми
Ви не можете відповідати на повідомлення
Ви не можете редагувати свої повідомлення
Ви не можете видаляти свої повідомлення
Ви не можете голосувати в опитуваннях
Ви не можете прикріплювати файли до повідомлень
Ви можете скачувати файли