Imre Kalman / Имре Кальман - Grafin Mariza / Марица (Дарья Жолнерова) [2014, оперетта, WEB-DLRip] Саратовский академический театр оперы и балета


Статистика роздачі [Оновити пиров]
Розмір:  2,17 GB   |    Зареєстрований:  1 рік   |    Скачано:  0 раз

Повного джерела не було: Ніколи

by Паночка ®
09-Бер-2018 20:19


Imre Kalman / Имре Кальман - Grafin Mariza / Марица (Дарья Жолнерова) [2014, оперетта, WEB-DLRip] Саратовский академический театр оперы и балета

Марица (2 действия) Название театра: Саратовский академический театр оперы и балета.
Год выпуска: 2014.
Жанр: оперетта.
Продолжительность: 01:56:13.
Режиссер: Дарья Жолнерова (Санкт-Петербург).
Действующие лица и исполнители:
Марица - заслуженная артистка России Татьяна Соболева,
Тассило - Андрей Макаров,
Лиза - Надежда Федосеева,
Князь Мориц Драгомир Популеску - заслуженный артист России Александр Багмат,
Барон Коломан Зупан - Павел Корчагин,
Княгиня Божена Куденштейн - Марина Демидова,
Маня - Наталья Даринцева,
Пенижек - заслуженный артист России Виктор Демидов, Олег Халяпин,
Иштван Либенберг - Алексей Асеев, Иван Павленко,
Чекко - Виктор Куценко, Николай Колесников,
Берко - Николай Коробкин, Илья Садовой,
Мама Зупана - Жанна Моисеева,
Работники Марицы, гости, цыгане - артисты хора, балета и миманса театра.
О спектакле:
Без сомнения, «Марица» — одно из лучших творений Кальмана. Ее часто называют «венгерской рапсодией», а романтические венгерско-цыганские мотивы оперетты с их мечтательностью и изысканным блеском импровизационных украшений — откровение «мадьярской души» композитора. Оперетта «Марица» пленяет красотой мелодий, поэтичностью, полным любовных интриг и хитросплетений сюжетом.
В свое имение в поисках душевного спасения и надеждах на женское счастье возвращается графиня Марица. Кто же станет ее избранником? Ведь все мужчины, стоит им побывать в ее обществе хоть десять минут, непременно хотят на ней жениться!

Дополнительная информация:
Страна: Россия .
Композитор: Имре Кальман.
Либретто Юлиуса Браммера и Альфреда Грюнвальда.
Дирижер-постановщик: Медет Тургумбаев.
Художник-постановщик: заслуженный художник России Сергей Болдырев.
Художник по костюмам: Ольга Колесникова.
Хормейстер: Анна Вильперт.
Балетмейстер: Владимир Романовский (Санкт-Петербург).
Премьера спектакля состоялась 31 октября 2014 года.
Видео: В. Захаров.

О спектакле.
Релиз
Рип sharky.

Качество видео:...WEB-DLRip
Формат:.................AVI
Видео:..704x400 (1.76:1), 25 fps, XviD build 50 ~1585 kbps avg, 0.23 bit/pixel
Аудио:..48 kHz, AC3 Dolby Digital, 2/0 (L,R) ch, ~192 kbps

Отчет MediaInfo

1-е действие:
General
Complete name : Marica_Saratovskij.ATOB.(2.dejstviya).2014.XviD.WEB-DLRip.fenixclub\Marica_Saratovskij.ATOB.2014_1-e.dejstvie.avi
Format : AVI
Format/Info : Audio Video Interleave
File size : 959 MiB
Duration : 1h 3mn
Overall bit rate : 2 099 Kbps
Writing application : VirtualDubMod 1.5.10.2 (build 2540/release)
Writing library : VirtualDubMod build 2540/release
Video
ID : 0
Format : MPEG-4 Visual
Format profile : Advanced [email protected]
Format settings, BVOP : 1
Format settings, QPel : No
Format settings, GMC : No warppoints
Format settings, Matrix : Default (H.263)
Codec ID : XVID
Codec ID/Hint : XviD
Duration : 1h 3mn
Bit rate : 1 961 Kbps
Width : 704 pixels
Height : 400 pixels
Display aspect ratio : 16:9
Frame rate : 25.000 fps
Color space : YUV
Chroma subsampling : 4:2:0
Bit depth : 8 bits
Scan type : Progressive
Compression mode : Lossy
Bits/(Pixel*Frame) : 0.279
Stream size : 896 MiB (93%)
Writing library : XviD 1.2.0.dev47 (UTC 2006-11-01)
Audio
ID : 1
Format : MPEG Audio
Format version : Version 1
Format profile : Layer 3
Codec ID : 55
Codec ID/Hint : MP3
Duration : 1h 3mn
Bit rate mode : Constant
Bit rate : 128 Kbps
Channel(s) : 2 channels
Sampling rate : 44.1 KHz
Compression mode : Lossy
Stream size : 58.5 MiB (6%)
Alignment : Split accross interleaves
Interleave, duration : 40 ms (1.00 video frame)
Interleave, preload duratio : 500 ms
Writing library : LAME3.97
Encoding settings : -m s -V 4 -q 2 -lowpass 17 -b 128
2-е действие:
General
Complete name : Marica_Saratovskij.ATOB.(2.dejstviya).2014.XviD.WEB-DLRip.fenixclub\Marica_Saratovskij.ATOB.2014_2-e.dejstvie.avi
Format : AVI
Format/Info : Audio Video Interleave
File size : 1.24 GiB
Duration : 1h 24mn
Overall bit rate : 2 099 Kbps
Writing application : VirtualDubMod 1.5.10.2 (build 2540/release)
Writing library : VirtualDubMod build 2540/release
Video
ID : 0
Format : MPEG-4 Visual
Format profile : Advanced [email protected]
Format settings, BVOP : 1
Format settings, QPel : No
Format settings, GMC : No warppoints
Format settings, Matrix : Default (H.263)
Codec ID : XVID
Codec ID/Hint : XviD
Duration : 1h 24mn
Bit rate : 1 961 Kbps
Width : 704 pixels
Height : 400 pixels
Display aspect ratio : 16:9
Frame rate : 25.000 fps
Color space : YUV
Chroma subsampling : 4:2:0
Bit depth : 8 bits
Scan type : Progressive
Compression mode : Lossy
Bits/(Pixel*Frame) : 0.279
Stream size : 1.15 GiB (93%)
Writing library : XviD 1.2.0.dev47 (UTC 2006-11-01)
Audio
ID : 1
Format : MPEG Audio
Format version : Version 1
Format profile : Layer 3
Codec ID : 55
Codec ID/Hint : MP3
Duration : 1h 24mn
Bit rate mode : Constant
Bit rate : 128 Kbps
Channel(s) : 2 channels
Sampling rate : 44.1 KHz
Compression mode : Lossy
Stream size : 77.2 MiB (6%)
Alignment : Split accross interleaves
Interleave, duration : 40 ms (1.00 video frame)
Interleave, preload duratio : 500 ms
Writing library : LAME3.97
Encoding settings : -m s -V 4 -q 2 -lowpass 17 -b 128

Скриншот с названием

Скриншоты





Ви не можете починати теми
Ви не можете відповідати на повідомлення
Ви не можете редагувати свої повідомлення
Ви не можете видаляти свої повідомлення
Ви не можете голосувати в опитуваннях
Ви не можете прикріплювати файли до повідомлень
Ви можете скачувати файли