Гаэтано Доницетти - Петр I, или Невероятные приключения русского царя / Gaetano Donizetti - Pietro il Grande [2016, opera buffa, WEBRip] (Русские субтитры)


Статистика роздачі [Оновити пиров]
Розмір:  1,11 GB   |    Зареєстрований:  1 рік   |    Скачано:  0 раз

Повного джерела не було: Ніколи

by Паночка ®
09-Бер-2018 20:19


Гаэтано Доницетти - Петр I, или Невероятные приключения русского царя / Gaetano Donizetti - Pietro il Grande [2016, opera buffa, WEBRip] (Русские субтитры)

Гаэтано Доницетти. Петр I, или Невероятные приключения русского царя
Год выпуска: 2016
Страна-производитель: Россия
Жанр: opera buffa
Продолжительность: 02:49:30
Язык: итальянский, русский
Перевод: субтитры
Субтитры: русские, на основе либретто Юрия Димитрина
Режиссер: Юрий Александров
Исполнители: Денис Ахметшин (Меншиков), Елена Тихонова (Екатерина), Юрий Борщёв (Петр I), Каролина Шаповалова (Анетта), Софья Некрасова (Мадам Фриц), Денис Закиров (Карл), Антон Морозов (Магистратор), Егор Чубаков (Фирман)
Дирижёр: Александр Гойхман
Государственный Камерный Музыкальный театр "Санктъ-Петербургъ Опера" на сцене Эрмитажного театра
Либретто: Герардо Бевильаква Альдобрандини
Версия либретто для исполнения на итальянском и русском языках Юрия Димитрина
Режиссер-постановщик: Юрий Александров
Дирижеры: Александр Гойхман, Максим Вальков
Художник-постановщик: Вячеслав Окунев
Художник по свету: Глеб Фильштинский
Режиссеры: Татьяна Карпачёва, Наталья Черникова
Ответственный концертмейстер: Ирина Теплякова
Концертмейстер: Нина Жуковская
Хормейстер: Мария Гергель
Консультант по пластике: Гали Абайдулов
Описание: Опера "Pietro il Grande" написана на популярный в то время сюжет пьесы Александра Дюваля и была представлена под названием «Петр Великий, царь русский, или Ливонский плотник» в венецианском театре
"Сан-Самуэле" в карнавальные дни 1819 года. До 1826 года состоялось ещё несколько постановок на сценах итальянских оперных театров. Впоследствии опера ни разу не ставилась.
Доп. информация: Партитура оперы "Pietro il Grande", созданной 22-летним Гаэтано Доницетти, исчезла после пожара в Театре Ла Фениче в 1823 году. Усилиями художественного руководителя театра «Санктъ-Петербургъ Опера» Юрия Александрова, при помощи театра «Ля Фениче», Фонда и Издательства «Дом Рикорди», владеющего правом на музыку композитора, а также бергамского театра "Доницетти" и Генерального консульства Италии разрозненные фрагменты партитуры удалось собрать в единое целое.
Качество видео: WEBRip
Формат/Контейнер: MPEG4
Видео кодек: AVC
Аудио кодек: AAC
Видео поток: AVC 854х480 16:9 29.97 кадров/сек 880 Кбит/сек
Аудио поток: AAC 32 КГц 2 канала 160 Кбит/сек

MediaInfo

Общее
Полное имя : F:\Donizetti\Петр I\Петр I или невероятные приключения русского царя.mp4
Формат : MPEG-4
Профиль формата : Base Media
Идентификатор кодека : isom
Размер файла : 1,11 Гбайт
Продолжительность : 2 ч. 49 м.
Режим общего битрейта : Переменный
Общий поток : 939 Кбит/сек
Программа кодирования : Lavf55.48.100
Видео
Идентификатор : 1
Формат : AVC
Формат/Информация : Advanced Video Codec
Профиль формата : [email protected]
Параметр CABAC формата : Нет
Параметр ReFrames формата : 3 кадра
Параметр GOP формата : M=1, N=30
Идентификатор кодека : avc1
Идентификатор кодека/Информация : Advanced Video Coding
Продолжительность : 2 ч. 49 м.
Битрейт : 880 Кбит/сек
Ширина : 854 пикселя
Высота : 480 пикселей
Соотношение сторон : 16:9
Режим частоты кадров : Постоянный
Частота кадров : 29,970 кадров/сек
Цветовое пространство : YUV
Субдискретизация насыщенности : 4:2:0
Битовая глубина : 8 бит
Тип развёртки : Прогрессивная
Бит/(Пиксели*Кадры) : 0.072
Размер потока : 1,04 Гбайт (94%)
Библиотека кодирования : x264 core 142
Настройки программы : cabac=0 / ref=3 / deblock=1:0:0 / analyse=0x1:0x111 / me=hex / subme=7 / psy=1 / psy_rd=1.00:0.00 / mixed_ref=1 / me_range=16 / chroma_me=1 / trellis=1 / 8x8dct=0 / cqm=0 / deadzone=21,11 / fast_pskip=1 / chroma_qp_offset=-2 / threads=6 / lookahead_threads=1 / sliced_threads=0 / nr=0 / decimate=1 / interlaced=0 / bluray_compat=0 / constrained_intra=0 / bframes=0 / weightp=0 / keyint=30 / keyint_min=3 / scenecut=40 / intra_refresh=0 / rc_lookahead=30 / rc=2pass / mbtree=1 / bitrate=880 / ratetol=1.0 / qcomp=0.60 / qpmin=0 / qpmax=69 / qpstep=4 / cplxblur=20.0 / qblur=0.5 / ip_ratio=1.40 / aq=1:1.00
Аудио
Идентификатор : 2
Формат : AAC
Формат/Информация : Advanced Audio Codec
Профиль формата : LC
Идентификатор кодека : 40
Продолжительность : 2 ч. 49 м.
Вид битрейта : Переменный
Битрейт : 55,1 Кбит/сек
Максимальный битрейт : 160 Кбит/сек
Каналы : 2 канала
Channel(s)_Original : 1 канал
Расположение каналов : Front: C
Частота : 32,0 КГц
Метод сжатия : С потерями
Размер потока : 66,8 Мбайт (6%)

Скриншоты







Ви не можете починати теми
Ви не можете відповідати на повідомлення
Ви не можете редагувати свої повідомлення
Ви не можете видаляти свої повідомлення
Ви не можете голосувати в опитуваннях
Ви не можете прикріплювати файли до повідомлень
Ви можете скачувати файли