Алексей Рябов - Сорочинская ярмарка (Ирина Мякишева) [2017, оперетта, WEB-DLRip] Иркутский областной музыкальный театр имени Н. М. Загурского


Статистика роздачі [Оновити пиров]
Розмір:  2,18 GB   |    Зареєстрований:  1 рік   |    Скачано:  0 раз

Повного джерела не було: Ніколи

by Паночка ®
09-Бер-2018 20:19


Алексей Рябов - Сорочинская ярмарка (Ирина Мякишева) [2017, оперетта, WEB-DLRip] Иркутский областной музыкальный театр имени Н. М. Загурского

Сорочинская ярмарка Название театра: Иркутский областной музыкальный театр имени Н. М. Загурского.
Год выпуска: 2017.
Жанр: оперетта.
Продолжительность: 02:21:52.
Режиссер: Ирина Мякишева.
Действующие лица и исполнители:
Солопий Черевик - заслуженный артист России Владимир Попов,
Парася - Светлана Щерботкина,
Хивря - Вера Щепеткина,
Грицко - Гейрат Шабанов,
Цыбуля - Александр Айдаров,
Мокрина - Людмила Борисова,
Афанасий Иванович - заслуженный артист России Виктор Лесовой,
Хвенько - Станислав Чернышев,
Груня - Ирина Мякишева,
Казачка - Ирина Джумок,
Парубки - Максим Беломестнов, Андрей Данилов (мл.), Виталий Зайцев.
Артисты хора и балета.
О спектакле:
Веселым колесом вращается жизнь на ярмарке, куда приезжают наши герои. Вовсю идет купля-продажа всякой всячины. Ну и какая ярмарка без любовных историй! Страсти разгораются как среди дивчин и парубков, так и у почтенных казаков и казачек. Тем временем по ярмарке проносится слух о таинственной «красной свитке», якобы разыскиваемой самим чертом…
Задушевные украинские песни, зажигательные танцы, добрый юмор, красочный фольклор – все в этой замечательной оперетте.

Дополнительная информация:
Страна: Россия .
Композитор: Алексей Рябов.
Авторы либретто: Леонид Юхвид и Михаил Авах.
Дирижер-постановщик: Евгений Зеленцов.
Балетмейстер-постановщик: Дмитрий Устюжанин (Санкт-Петербург).
Художник по костюмам: Наталия Убрятова.
Хормейстеры: Наталья Ладыгина, Ульяна Чугуевская.
Художник по свету: заслуженный работник культуры России Галина Мельник.

Релиз
Рип sharky.

Качество видео:...WEB-DLRip
Формат:.................AVI
Видео:..704x400 (1.76:1), 25 fps, XviD build 47 ~1997 kbps avg, 0.28 bit/pixel
Аудио:..48 kHz, AC3 Dolby Digital, 2/0 (L,R) ch, ~192 kbps

Отчет Media Info

General
Complete name : Soro4inskaya.yarmarka_Irkutskij.OMT.im.N.M.Zagurskogo.2017.XviD.WEB-DLRip.fenixclub.avi
Format : AVI
Format/Info : Audio Video Interleave
Format profile : OpenDML
File size : 2.18 GiB
Duration : 2h 21mn
Overall bit rate : 2 196 Kbps
Writing application : VirtualDubMod 1.5.10.2 (build 2540/release)
Writing library : VirtualDubMod build 2540/release
Video
ID : 0
Format : MPEG-4 Visual
Format profile : Advanced [email protected]
Format settings, BVOP : 1
Format settings, QPel : No
Format settings, GMC : No warppoints
Format settings, Matrix : Default (H.263)
Codec ID : XVID
Codec ID/Hint : XviD
Duration : 2h 21mn
Bit rate : 1 992 Kbps
Width : 704 pixels
Height : 400 pixels
Display aspect ratio : 16:9
Frame rate : 25.000 fps
Color space : YUV
Chroma subsampling : 4:2:0
Bit depth : 8 bits
Scan type : Progressive
Compression mode : Lossy
Bits/(Pixel*Frame) : 0.283
Stream size : 1.97 GiB (91%)
Writing library : XviD 1.2.0.dev47 (UTC 2006-11-01)
Audio
ID : 1
Format : AC-3
Format/Info : Audio Coding 3
Mode extension : CM (complete main)
Format settings, Endianness : Big
Codec ID : 2000
Duration : 2h 21mn
Bit rate mode : Constant
Bit rate : 192 Kbps
Channel(s) : 2 channels
Channel positions : Front: L R
Sampling rate : 48.0 KHz
Frame rate : 31.250 fps (1536 spf)
Compression mode : Lossy
Stream size : 195 MiB (9%)
Alignment : Split accross interleaves
Interleave, duration : 40 ms (1.00 video frame)
Interleave, preload duratio : 500 ms.

Скриншоты





Ви не можете починати теми
Ви не можете відповідати на повідомлення
Ви не можете редагувати свої повідомлення
Ви не можете видаляти свої повідомлення
Ви не можете голосувати в опитуваннях
Ви не можете прикріплювати файли до повідомлень
Ви можете скачувати файли