Дмитрий Хворостовский. Концерт на Красной площади [2004, Классическая, вокальная, концерт, HDTV 1080i]


Статистика роздачі [Оновити пиров]
Розмір:  5,31 GB   |    Зареєстрований:  1 рік   |    Скачано:  0 раз

Повного джерела не було: Ніколи

by Козак ®
09-Бер-2018 20:18


Дмитрий Хворостовский. Концерт на Красной площади [2004, Классическая, вокальная, концерт, HDTV 1080i]

Дмитрий Хворостовский. Концерт на Красной площади
Страна: Россия
Жанр: Классическая, вокальная, концерт
Продолжительность: 01:30:55
Год выпуска: 2004
Описание: Дмитрий Хворостовский стал первым оперным исполнителем, выступившим с оркестром и хором на Красной площади в Москве: 28 моя 2004 года в ходе благотворительного концерта он исполнял советские песни военных лет, арии из опер русских и итальянских композиторов, русские романсы и неаполитанские песни. Выступление транслировалось по телевидению в более чем 30 странах.
Треклист:
01. Н. Римский-Корсаков - Шествие князей из оперы "Млада"
02. П. Чайковский - Ария Онегина из оперы "Евгений Онегин"
03. А. Бородин - Ария князя Игоря из оперы "Князь Игорь"
04. А. Рубинштейн - Эпиталама Виндекса из оперы "Нерон"
05. Дж.Верди - Ария Дон Карло из оперы "Эрнани"
06. Н. Валенте, Э. Тальяферри - Неаполитанская песня "Passione" (Страсть)
07. Ч. Биксио - "Parlami d'amore Mariu" (Девушки, спешите на свиданье!)
08. Русская народная песня - "Ух ты поле"
09. А. Гурилев, И. Макаров - "Однозвучно гремит колокольчик"
10. М. Блантер, М. Исаковский - "Катюша"
11. К. Молчанов, М. Львовский - "Вот солдаты идут"
12. Д. Покрасс, В. Лебедев-Кумач - "Москва, майская"
13. Н. Богословский, А. Агатов - "Темная ночь"
14. Я. Френкель, Р. Гамзатов - "Журавли"
15. М. Таривердиев, Р. Рождественский - "Где-то далеко"
16. В. Соловьев-Седой, М. Матусовский - "Подмосковные вечера"
17. И. Дунаевский, М. Лисянский, С. Агранян - "Моя Москва"
18. Русская народная песня - "Ах ты, ноченька"
Доп. информация:
Автор релиза -
Источник - HDTV 1080i TS - моя запись с канала Россия-1 HD
Сэмпл: https://yadi.sk/i/Z62Q0wf-3PwkkN
Рекламы нет!
Качество: HDTV 1080i
Контейнер: TS
Видео кодек: MPEG-4
Аудио кодек: MP2
Видео: MPEG-4, 1920x1080 (16:9), 25.000 fps, 7756 kbps, 0.15 bit/pixel
Аудио: MP2, 48000 Гц, 2ch, 192 kbps

MediaInfo

ОбщееИдентификатор                            : 1 (0x1)Полное имя                               : D:\Дмитрий.Хворостовский.Концерт.на.Красной.площади.2004.HDTV.1080i-ylnian.tsФормат                                   : MPEG-TSРазмер файла                             : 5,31 ГбайтПродолжительность                        : 1 ч. 30 м.Режим общего битрейта                    : ПеременныйОбщий поток                              : 8363 Кбит/сек
ВидеоИдентификатор : 1178 (0x49A)Идентификатор меню : 1138 (0x472)Формат : AVCФормат/Информация : Advanced Video CodecПрофиль формата : [email protected]Настройки формата : CABAC / 4 Ref FramesПараметр CABAC формата : ДаПараметр RefFrames формата : 4 кадраИдентификатор кодека : 27Продолжительность : 1 ч. 30 м.Битрейт : 7756 Кбит/секШирина : 1920 пикселейВысота : 1080 пикселейСоотношение сторон : 16:9Частота кадров : 25,000 кадров/секСтандарт вещания : ComponentЦветовое пространство : YUVСубдискретизация насыщенности : 4:2:0Битовая глубина : 8 битТип развёртки : ЧересстрочнаяМетод сохранения типа развёртки : Раздельные поляПорядок развёртки : Верхнее поле первоеБит/(Пиксели*Кадры) : 0.150Размер потока : 4,92 Гбайт (93%)Цветовой диапазон : LimitedОсновные цвета : BT.709Характеристики трансфера : BT.709Коэффициенты матрицы : BT.709
АудиоИдентификатор : 1179 (0x49B)Идентификатор меню : 1138 (0x472)Формат : MPEG AudioВерсия формата : Version 1Профиль формата : Layer 2Идентификатор кодека : 3Продолжительность : 1 ч. 30 м.Вид битрейта : ПостоянныйБитрейт : 192 Кбит/секКаналы : 2 каналаЧастота : 48,0 КГцЧастота кадров : 41,667 кадра/сек (1152 SPF)Метод сжатия : С потерямиЗадержка видео : -80 мс.Размер потока : 125 Мбайт (2%)Язык : Russian



Ви не можете починати теми
Ви не можете відповідати на повідомлення
Ви не можете редагувати свої повідомлення
Ви не можете видаляти свої повідомлення
Ви не можете голосувати в опитуваннях
Ви не можете прикріплювати файли до повідомлень
Ви можете скачувати файли