Новогодний концерт Венского филармонического оркестра. Лучшее 1975-2007 / Best of Neujahrskonzert der Wiener Philharmoniker 1975-2007 (Willi Boskovsky, Mariss Jansons, Carlos Kleiber, Lorin Maazel, Zubin Mehta, Riccardo Muti) [2007, Classical, DVD9]


Статистика роздачі [Оновити пиров]
Розмір:  7,15 GB   |    Зареєстрований:  1 рік   |    Скачано:  0 раз

Повного джерела не було: Ніколи

by Козак ®
09-Бер-2018 20:18


Новогодний концерт Венского филармонического оркестра. Лучшее 1975-2007 / Best of Neujahrskonzert der Wiener Philharmoniker 1975-2007 (Willi Boskovsky, Mariss Jansons, Carlos Kleiber, Lorin Maazel, Zubin Mehta, Riccardo Muti) [2007, Classical, DVD9]

Новогодний концерт Венского филармонического оркестра. Лучшее 1975-2007 / Best of Neujahrskonzert der Wiener Philharmoniker 1975-2007
Год выпуска: 2007
Лейбл: Deutsche Grammophon
Страна-производитель: Германия
Жанр: Classical
Продолжительность: 01:56:02
Язык: Английский
Перевод: Не требуется
Субтитры: Нет
Режиссерs: Brian Large (Брайан Лардж), German Lansky (Герман Лански)
Исполнитель: Венский филармонический оркестр
Дирижеры: Willi Boskovsky (Вилли Босковски), Mariss Jansons (Марис Я́нсонс), Carlos Kleiber (Карлос Клайбер), Lorin Maazel (Лорин Маазель), Zubin Mehta (Зубин Мета), Riccardo Muti (Рикардо Мути)
Треклист:
01. Johann Strauss – Die Fledermaus, Overture
02. Johann Strauss – Frühlingsstimmen, Walzer, op. 410
03. Johann Strauss – Elisen, Polka française, op. 151 (конная выездка)
04. Johann Strauss – Geschichten aus dem Wienerwald, Walzer, op. 325
05. Josef Strauss – Die Libelle, Polka mazur, op. 204
06. Johann Strauss – Wo die Zitronen blüh'n, Walzer, op. 364
07. Joseph Hellmesberger – Auf Wiener Art, Polka francaise, o.Op.
08. Johann Strauss – Tritsch-Tratsch, Polka, op. 214
09. Johann Strauss – Kaiser-Walzer, op. 437, (Balet)
10. Johann Strauss – Accelerationen, Walzer, op. 234 (Balet)
11. Johann Strauss – Du und Du, Walzer, op. 367 (based on themes from 'Die Fledermaus'), (Balet)
12. Johann Strauss, Josef Strauss – Pizzicato, Polka, op. 234
13. Johann Strauss – Tausend und eine Nacht, Walzer, op. 346
14. Johann Strauss – Unter Donner und Blitz, Polka schnell, op. 324
15. Johann Strauss – Wiener Blut, Walzer, op. 354, (Balet)
16. Johann Strauss – An der schönen blauen Donau, Walzer, op. 314, (Balet)
17. Johann Strauss St. – Radetzky-Marsch, op. 228 (Arr. Leopold Weninger)
Описание: Новогодний концерт Венского филармонического Оркестра. Уже давно стало традицией филармонии на Новый год представить программу, состоящую из живой и в то же время ностальгической музыки главным образом из огромного репертуара семейства Штраусов и их современников. Эти концерты вызывают восторг не только у аудитории в Musikverein в Вене, но и пользуются большой международной популярностью благодаря телевизионной трансляции, которая сейчас достигает более 50 стран. На DVD представлены лучшие номера из Новогодних концертов 1975-2007 гг.
Качество видео: DVD9
Формат/Контейнер: DVDVideo
Видео кодек: MPEG2
Аудио кодек: PCM, DTS
Видео поток: NTSC 4:3 (720x480) VBR
Аудио поток 1: LinearPCM, 2 ch
Аудио поток 2: DTS, 6 ch

DVD-Info

Общее
Полное имя : T:\Torrent\Novogodnij.koncert.venskogo.filarmonicheskogo.orkestra.Best.2007.DVD-9\VIDEO_TS\VIDEO_TS.BUP
Формат : DVD Video
Профиль формата : Menu
Размер файла : 14,0 Кбайт
Режим общего битрейта : Переменный
Видео
Идентификатор : 224 (0xE0)
Формат : MPEG Video
Версия формата : Version 2
Вид битрейта : Переменный
Ширина : 720 пикселей
Высота : 480 пикселей
Соотношение сторон : 4:3
Частота кадров : 29,970 (29970/1000) кадров/сек
Стандарт вещания : NTSC
Метод сжатия : С потерями
Текст
Формат : RLE
Формат/Информация : Run-length encoding
Битовая глубина : 2 бит
Общее
Полное имя : T:\Torrent\Novogodnij.koncert.venskogo.filarmonicheskogo.orkestra.Best.2007.DVD-9\VIDEO_TS\VIDEO_TS.IFO
Формат : DVD Video
Профиль формата : Menu
Размер файла : 14,0 Кбайт
Режим общего битрейта : Переменный
Видео
Идентификатор : 224 (0xE0)
Формат : MPEG Video
Версия формата : Version 2
Вид битрейта : Переменный
Ширина : 720 пикселей
Высота : 480 пикселей
Соотношение сторон : 4:3
Частота кадров : 29,970 (29970/1000) кадров/сек
Стандарт вещания : NTSC
Метод сжатия : С потерями
Текст
Формат : RLE
Формат/Информация : Run-length encoding
Битовая глубина : 2 бит
Общее
Полное имя : T:\Torrent\Novogodnij.koncert.venskogo.filarmonicheskogo.orkestra.Best.2007.DVD-9\VIDEO_TS\VIDEO_TS.VOB
Формат : MPEG-PS
Размер файла : 4,16 Мбайт
Продолжительность : 33 мс.
Режим общего битрейта : Переменный
Общий поток : 1057 Мбит/сек
Видео
Идентификатор : 224 (0xE0)
Формат : MPEG Video
Версия формата : Version 2
Профиль формата : [email protected]
Параметр BVOP формата : Да
Параметр матрицы формата : Выборочная
Параметр GOP формата : Variable
Продолжительность : 33 мс.
Вид битрейта : Переменный
Ширина : 720 пикселей
Высота : 480 пикселей
Соотношение сторон : 4:3
Частота кадров : 29,970 (30000/1001) кадров/сек
Стандарт вещания : NTSC
Цветовое пространство : YUV
Субдискретизация насыщенности : 4:2:0
Битовая глубина : 8 бит
Метод сжатия : С потерями
Временной код первого кадра : 00:00:00:00
Оригинал временного кода : Group of pictures header
Текст
Идентификатор : 189 (0xBD)-32 (0x20)
Формат : RLE
Формат/Информация : Run-length encoding
Режим смешивания : DVD-Video
Меню
Общее
Полное имя : T:\Torrent\Novogodnij.koncert.venskogo.filarmonicheskogo.orkestra.Best.2007.DVD-9\VIDEO_TS\VTS_01_0.BUP
Формат : DVD Video
Профиль формата : Program
Размер файла : 80,0 Кбайт
Продолжительность : 1 ч. 56 м.
Режим общего битрейта : Переменный
Общий поток : 94 бит/сек
Видео
Идентификатор : 224 (0xE0)
Формат : MPEG Video
Версия формата : Version 2
Продолжительность : 1 ч. 56 м.
Вид битрейта : Переменный
Ширина : 720 пикселей
Высота : 480 пикселей
Соотношение сторон : 4:3
Частота кадров : 29,970 (29970/1000) кадров/сек
Стандарт вещания : NTSC
Метод сжатия : С потерями
Аудио #1
Идентификатор : 0 (0x0)
Формат : PCM
Продолжительность : 1 ч. 56 м.
Каналы : 2 канала
Частота : 48,0 КГц
Аудио #2
Идентификатор : 137 (0x89)
Формат : DTS
Формат/Информация : Digital Theater Systems
Продолжительность : 1 ч. 56 м.
Каналы : 6 каналов
Частота : 48,0 КГц
Метод сжатия : С потерями
Меню
Продолжительность : 1 ч. 56 м.
00:00:00.000 : Chapter 1
00:08:06.566 : Chapter 2
00:14:39.666 : Chapter 3
00:18:58.566 : Chapter 4
00:31:53.466 : Chapter 5
00:37:10.032 : Chapter 6
00:46:26.798 : Chapter 7
00:49:07.631 : Chapter 8
00:51:49.597 : Chapter 9
01:02:21.663 : Chapter 10
01:11:13.563 : Chapter 11
01:18:30.029 : Chapter 12
01:21:44.462 : Chapter 13
01:30:38.462 : Chapter 14
01:33:47.895 : Chapter 15
01:43:20.861 : Chapter 16
01:52:52.761 : Chapter 17
List (Audio) : 0 / 1
Общее
Полное имя : T:\Torrent\Novogodnij.koncert.venskogo.filarmonicheskogo.orkestra.Best.2007.DVD-9\VIDEO_TS\VTS_01_0.IFO
Формат : DVD Video
Профиль формата : Program
Размер файла : 80,0 Кбайт
Продолжительность : 1 ч. 56 м.
Режим общего битрейта : Переменный
Общий поток : 94 бит/сек
Видео
Идентификатор : 224 (0xE0)
Формат : MPEG Video
Версия формата : Version 2
Продолжительность : 1 ч. 56 м.
Вид битрейта : Переменный
Ширина : 720 пикселей
Высота : 480 пикселей
Соотношение сторон : 4:3
Частота кадров : 29,970 (29970/1000) кадров/сек
Стандарт вещания : NTSC
Метод сжатия : С потерями
Аудио #1
Идентификатор : 0 (0x0)
Формат : PCM
Продолжительность : 1 ч. 56 м.
Каналы : 2 канала
Частота : 48,0 КГц
Аудио #2
Идентификатор : 137 (0x89)
Формат : DTS
Формат/Информация : Digital Theater Systems
Продолжительность : 1 ч. 56 м.
Каналы : 6 каналов
Частота : 48,0 КГц
Метод сжатия : С потерями
Меню
Продолжительность : 1 ч. 56 м.
00:00:00.000 : Chapter 1
00:08:06.566 : Chapter 2
00:14:39.666 : Chapter 3
00:18:58.566 : Chapter 4
00:31:53.466 : Chapter 5
00:37:10.032 : Chapter 6
00:46:26.798 : Chapter 7
00:49:07.631 : Chapter 8
00:51:49.597 : Chapter 9
01:02:21.663 : Chapter 10
01:11:13.563 : Chapter 11
01:18:30.029 : Chapter 12
01:21:44.462 : Chapter 13
01:30:38.462 : Chapter 14
01:33:47.895 : Chapter 15
01:43:20.861 : Chapter 16
01:52:52.761 : Chapter 17
List (Audio) : 0 / 1
Общее
Полное имя : T:\Torrent\Novogodnij.koncert.venskogo.filarmonicheskogo.orkestra.Best.2007.DVD-9\VIDEO_TS\VTS_01_0.VOB
Формат : MPEG-PS
Размер файла : 530 Кбайт
Продолжительность : 33 мс.
Общий поток : 132 Мбит/сек
Видео
Идентификатор : 224 (0xE0)
Формат : MPEG Video
Версия формата : Version 2
Профиль формата : [email protected]
Параметр BVOP формата : Нет
Параметр матрицы формата : Выборочная
Параметр GOP формата : N=1
Продолжительность : 33 мс.
Вид битрейта : Постоянный
Максимальный битрейт : 8000 Кбит/сек
Ширина : 720 пикселей
Высота : 480 пикселей
Соотношение сторон : 4:3
Частота кадров : 29,970 (30000/1001) кадров/сек
Стандарт вещания : NTSC
Цветовое пространство : YUV
Субдискретизация насыщенности : 4:2:0
Битовая глубина : 8 бит
Тип развёртки : Прогрессивная
Порядок развёртки : Верхнее поле первое
Метод сжатия : С потерями
Текст
Идентификатор : 189 (0xBD)-32 (0x20)
Формат : RLE
Формат/Информация : Run-length encoding
Режим смешивания : DVD-Video
Меню
Общее
Полное имя : T:\Torrent\Novogodnij.koncert.venskogo.filarmonicheskogo.orkestra.Best.2007.DVD-9\VIDEO_TS\VTS_01_1.VOB
Формат : MPEG-PS
Размер файла : 1024 Мбайт
Продолжительность : 16 м. 20 с.
Режим общего битрейта : Переменный
Общий поток : 8754 Кбит/сек
Видео
Идентификатор : 224 (0xE0)
Формат : MPEG Video
Версия формата : Version 2
Профиль формата : [email protected]
Параметр BVOP формата : Да
Параметр матрицы формата : Выборочная
Параметр GOP формата : M=3, N=15
Структура изображения : Frame
Продолжительность : 16 м. 20 с.
Вид битрейта : Переменный
Битрейт : 5534 Кбит/сек
Максимальный битрейт : 9800 Кбит/сек
Ширина : 720 пикселей
Высота : 480 пикселей
Соотношение сторон : 4:3
Частота кадров : 29,970 (30000/1001) кадров/сек
Стандарт вещания : NTSC
Цветовое пространство : YUV
Субдискретизация насыщенности : 4:2:0
Битовая глубина : 8 бит
Тип развёртки : Чересстрочная
Порядок развёртки : Нижнее поле первое
Метод сжатия : С потерями
Бит/(Пиксели*Кадры) : 0.534
Временной код первого кадра : 01:00:00:00
Оригинал временного кода : Group of pictures header
GOP, открыто/закрыто : Открыто
GOP, открыто/закрыто на первом кадре : Закрыто
Размер потока : 647 Мбайт (63%)
Аудио #1
Идентификатор : 189 (0xBD)-137 (0x89)
Формат : DTS
Формат/Информация : Digital Theater Systems
Режим : 16
Параметр Endianness формата : Big
Режим смешивания : DVD-Video
Продолжительность : 16 м. 20 с.
Вид битрейта : Постоянный
Битрейт : 1510 Кбит/сек
Каналы : 6 каналов
Расположение каналов : Front: L C R, Side: L R, LFE
Частота : 48,0 КГц
Частота кадров : 93,750 кадра/сек (512 spf)
Битовая глубина : 16 бит
Метод сжатия : С потерями
Размер потока : 176 Мбайт (17%)
Аудио #2
Идентификатор : 189 (0xBD)-160 (0xA0)
Формат : PCM
Параметр Endianness формата : Big
Параметр Sign формата : Signed
Режим смешивания : DVD-Video
Продолжительность : 16 м. 20 с.
Вид битрейта : Постоянный
Битрейт : 1536 Кбит/сек
Каналы : 2 канала
Частота : 48,0 КГц
Битовая глубина : 16 бит
Размер потока : 180 Мбайт (18%)
Меню
Продолжительность : 16 м. 20 с.
Общее
Полное имя : T:\Torrent\Novogodnij.koncert.venskogo.filarmonicheskogo.orkestra.Best.2007.DVD-9\VIDEO_TS\VTS_01_2.VOB
Формат : MPEG-PS
Размер файла : 1024 Мбайт
Продолжительность : 17 м. 13 с.
Режим общего битрейта : Переменный
Общий поток : 8309 Кбит/сек
Видео
Идентификатор : 224 (0xE0)
Формат : MPEG Video
Версия формата : Version 2
Профиль формата : [email protected]
Параметр BVOP формата : Да
Параметр матрицы формата : Выборочная
Параметр GOP формата : M=3, N=15
Структура изображения : Frame
Продолжительность : 17 м. 13 с.
Вид битрейта : Переменный
Битрейт : 5098 Кбит/сек
Максимальный битрейт : 9800 Кбит/сек
Ширина : 720 пикселей
Высота : 480 пикселей
Соотношение сторон : 4:3
Частота кадров : 29,970 (30000/1001) кадров/сек
Стандарт вещания : NTSC
Цветовое пространство : YUV
Субдискретизация насыщенности : 4:2:0
Битовая глубина : 8 бит
Тип развёртки : Чересстрочная
Порядок развёртки : Нижнее поле первое
Метод сжатия : С потерями
Бит/(Пиксели*Кадры) : 0.492
Временной код первого кадра : 01:16:19:25
Оригинал временного кода : Group of pictures header
GOP, открыто/закрыто : Открыто
Размер потока : 628 Мбайт (61%)
Аудио #1
Идентификатор : 189 (0xBD)-137 (0x89)
Формат : DTS
Формат/Информация : Digital Theater Systems
Режим : 16
Параметр Endianness формата : Big
Режим смешивания : DVD-Video
Продолжительность : 17 м. 13 с.
Вид битрейта : Постоянный
Битрейт : 1510 Кбит/сек
Каналы : 6 каналов
Расположение каналов : Front: L C R, Side: L R, LFE
Частота : 48,0 КГц
Частота кадров : 93,750 кадра/сек (512 spf)
Битовая глубина : 16 бит
Метод сжатия : С потерями
Задержка видео : -326 мс.
Размер потока : 186 Мбайт (18%)
Аудио #2
Идентификатор : 189 (0xBD)-160 (0xA0)
Формат : PCM
Параметр Endianness формата : Big
Параметр Sign формата : Signed
Режим смешивания : DVD-Video
Продолжительность : 17 м. 13 с.
Вид битрейта : Постоянный
Битрейт : 1536 Кбит/сек
Каналы : 2 канала
Частота : 48,0 КГц
Битовая глубина : 16 бит
Задержка видео : -330 мс.
Размер потока : 189 Мбайт (18%)
Меню
Продолжительность : 17 м. 13 с.
Общее
Полное имя : T:\Torrent\Novogodnij.koncert.venskogo.filarmonicheskogo.orkestra.Best.2007.DVD-9\VIDEO_TS\VTS_01_3.VOB
Формат : MPEG-PS
Размер файла : 1024 Мбайт
Продолжительность : 16 м. 34 с.
Режим общего битрейта : Переменный
Общий поток : 8638 Кбит/сек
Видео
Идентификатор : 224 (0xE0)
Формат : MPEG Video
Версия формата : Version 2
Профиль формата : [email protected]
Параметр BVOP формата : Да
Параметр матрицы формата : Выборочная
Параметр GOP формата : M=3, N=15
Структура изображения : Frame
Продолжительность : 16 м. 34 с.
Вид битрейта : Переменный
Битрейт : 5420 Кбит/сек
Максимальный битрейт : 9800 Кбит/сек
Ширина : 720 пикселей
Высота : 480 пикселей
Соотношение сторон : 4:3
Частота кадров : 29,970 (30000/1001) кадров/сек
Стандарт вещания : NTSC
Цветовое пространство : YUV
Субдискретизация насыщенности : 4:2:0
Битовая глубина : 8 бит
Тип развёртки : Чересстрочная
Порядок развёртки : Нижнее поле первое
Метод сжатия : С потерями
Бит/(Пиксели*Кадры) : 0.523
Временной код первого кадра : 01:33:32:14
Оригинал временного кода : Group of pictures header
GOP, открыто/закрыто : Открыто
Размер потока : 642 Мбайт (63%)
Аудио #1
Идентификатор : 189 (0xBD)-137 (0x89)
Формат : DTS
Формат/Информация : Digital Theater Systems
Режим : 16
Параметр Endianness формата : Big
Режим смешивания : DVD-Video
Продолжительность : 16 м. 34 с.
Вид битрейта : Постоянный
Битрейт : 1510 Кбит/сек
Каналы : 6 каналов
Расположение каналов : Front: L C R, Side: L R, LFE
Частота : 48,0 КГц
Частота кадров : 93,750 кадра/сек (512 spf)
Битовая глубина : 16 бит
Метод сжатия : С потерями
Задержка видео : -316 мс.
Размер потока : 179 Мбайт (17%)
Аудио #2
Идентификатор : 189 (0xBD)-160 (0xA0)
Формат : PCM
Параметр Endianness формата : Big
Параметр Sign формата : Signed
Режим смешивания : DVD-Video
Продолжительность : 16 м. 34 с.
Вид битрейта : Постоянный
Битрейт : 1536 Кбит/сек
Каналы : 2 канала
Частота : 48,0 КГц
Битовая глубина : 16 бит
Задержка видео : -327 мс.
Размер потока : 182 Мбайт (18%)
Меню
Продолжительность : 16 м. 34 с.
Общее
Полное имя : T:\Torrent\Novogodnij.koncert.venskogo.filarmonicheskogo.orkestra.Best.2007.DVD-9\VIDEO_TS\VTS_01_4.VOB
Формат : MPEG-PS
Размер файла : 1024 Мбайт
Продолжительность : 15 м. 55 с.
Режим общего битрейта : Переменный
Общий поток : 8990 Кбит/сек
Видео
Идентификатор : 224 (0xE0)
Формат : MPEG Video
Версия формата : Version 2
Профиль формата : [email protected]
Параметр BVOP формата : Да
Параметр матрицы формата : Выборочная
Параметр GOP формата : M=3, N=15
Структура изображения : Frame
Продолжительность : 15 м. 55 с.
Вид битрейта : Переменный
Битрейт : 5765 Кбит/сек
Максимальный битрейт : 9800 Кбит/сек
Ширина : 720 пикселей
Высота : 480 пикселей
Соотношение сторон : 4:3
Частота кадров : 29,970 (30000/1001) кадров/сек
Стандарт вещания : NTSC
Цветовое пространство : YUV
Субдискретизация насыщенности : 4:2:0
Битовая глубина : 8 бит
Тип развёртки : Чересстрочная
Порядок развёртки : Нижнее поле первое
Метод сжатия : С потерями
Бит/(Пиксели*Кадры) : 0.557
Временной код первого кадра : 01:50:05:18
Оригинал временного кода : Group of pictures header
GOP, открыто/закрыто : Открыто
GOP, открыто/закрыто на первом кадре : Закрыто
Размер потока : 656 Мбайт (64%)
Аудио #1
Идентификатор : 189 (0xBD)-137 (0x89)
Формат : DTS
Формат/Информация : Digital Theater Systems
Режим : 16
Параметр Endianness формата : Big
Режим смешивания : DVD-Video
Продолжительность : 15 м. 55 с.
Вид битрейта : Постоянный
Битрейт : 1510 Кбит/сек
Каналы : 6 каналов
Расположение каналов : Front: L C R, Side: L R, LFE
Частота : 48,0 КГц
Частота кадров : 93,750 кадра/сек (512 spf)
Битовая глубина : 16 бит
Метод сжатия : С потерями
Задержка видео : -253 мс.
Размер потока : 172 Мбайт (17%)
Аудио #2
Идентификатор : 189 (0xBD)-160 (0xA0)
Формат : PCM
Параметр Endianness формата : Big
Параметр Sign формата : Signed
Режим смешивания : DVD-Video
Продолжительность : 15 м. 55 с.
Вид битрейта : Постоянный
Битрейт : 1536 Кбит/сек
Каналы : 2 канала
Частота : 48,0 КГц
Битовая глубина : 16 бит
Задержка видео : -262 мс.
Размер потока : 175 Мбайт (17%)
Меню
Продолжительность : 15 м. 55 с.
Общее
Полное имя : T:\Torrent\Novogodnij.koncert.venskogo.filarmonicheskogo.orkestra.Best.2007.DVD-9\VIDEO_TS\VTS_01_5.VOB
Формат : MPEG-PS
Размер файла : 1024 Мбайт
Продолжительность : 16 м. 50 с.
Режим общего битрейта : Переменный
Общий поток : 8500 Кбит/сек
Видео
Идентификатор : 224 (0xE0)
Формат : MPEG Video
Версия формата : Version 2
Профиль формата : [email protected]
Параметр BVOP формата : Да
Параметр матрицы формата : Выборочная
Параметр GOP формата : M=3, N=15
Структура изображения : Frame
Продолжительность : 16 м. 50 с.
Вид битрейта : Переменный
Битрейт : 5285 Кбит/сек
Максимальный битрейт : 9800 Кбит/сек
Ширина : 720 пикселей
Высота : 480 пикселей
Соотношение сторон : 4:3
Частота кадров : 29,970 (30000/1001) кадров/сек
Стандарт вещания : NTSC
Цветовое пространство : YUV
Субдискретизация насыщенности : 4:2:0
Битовая глубина : 8 бит
Тип развёртки : Чересстрочная
Порядок развёртки : Нижнее поле первое
Метод сжатия : С потерями
Бит/(Пиксели*Кадры) : 0.510
Временной код первого кадра : 02:05:59:25
Оригинал временного кода : Group of pictures header
Размер потока : 637 Мбайт (62%)
Аудио #1
Идентификатор : 189 (0xBD)-137 (0x89)
Формат : DTS
Формат/Информация : Digital Theater Systems
Режим : 16
Параметр Endianness формата : Big
Режим смешивания : DVD-Video
Продолжительность : 16 м. 50 с.
Вид битрейта : Постоянный
Битрейт : 1510 Кбит/сек
Каналы : 6 каналов
Расположение каналов : Front: L C R, Side: L R, LFE
Частота : 48,0 КГц
Частота кадров : 93,750 кадра/сек (512 spf)
Битовая глубина : 16 бит
Метод сжатия : С потерями
Задержка видео : -318 мс.
Размер потока : 182 Мбайт (18%)
Аудио #2
Идентификатор : 189 (0xBD)-160 (0xA0)
Формат : PCM
Параметр Endianness формата : Big
Параметр Sign формата : Signed
Режим смешивания : DVD-Video
Продолжительность : 16 м. 50 с.
Вид битрейта : Постоянный
Битрейт : 1536 Кбит/сек
Каналы : 2 канала
Частота : 48,0 КГц
Битовая глубина : 16 бит
Задержка видео : -326 мс.
Размер потока : 185 Мбайт (18%)
Меню
Продолжительность : 16 м. 50 с.
Общее
Полное имя : T:\Torrent\Novogodnij.koncert.venskogo.filarmonicheskogo.orkestra.Best.2007.DVD-9\VIDEO_TS\VTS_01_6.VOB
Формат : MPEG-PS
Размер файла : 1024 Мбайт
Продолжительность : 17 м. 3 с.
Режим общего битрейта : Переменный
Общий поток : 8390 Кбит/сек
Видео
Идентификатор : 224 (0xE0)
Формат : MPEG Video
Версия формата : Version 2
Профиль формата : [email protected]
Параметр BVOP формата : Да
Параметр матрицы формата : Выборочная
Параметр GOP формата : M=3, N=15
Структура изображения : Frame
Продолжительность : 17 м. 3 с.
Вид битрейта : Переменный
Битрейт : 5177 Кбит/сек
Максимальный битрейт : 9800 Кбит/сек
Ширина : 720 пикселей
Высота : 480 пикселей
Соотношение сторон : 4:3
Частота кадров : 29,970 (30000/1001) кадров/сек
Стандарт вещания : NTSC
Цветовое пространство : YUV
Субдискретизация насыщенности : 4:2:0
Битовая глубина : 8 бит
Тип развёртки : Чересстрочная
Порядок развёртки : Нижнее поле первое
Метод сжатия : С потерями
Бит/(Пиксели*Кадры) : 0.500
Временной код первого кадра : 02:22:49:05
Оригинал временного кода : Group of pictures header
GOP, открыто/закрыто : Открыто
Размер потока : 632 Мбайт (62%)
Аудио #1
Идентификатор : 189 (0xBD)-137 (0x89)
Формат : DTS
Формат/Информация : Digital Theater Systems
Режим : 16
Параметр Endianness формата : Big
Режим смешивания : DVD-Video
Продолжительность : 17 м. 3 с.
Вид битрейта : Постоянный
Битрейт : 1510 Кбит/сек
Каналы : 6 каналов
Расположение каналов : Front: L C R, Side: L R, LFE
Частота : 48,0 КГц
Частота кадров : 93,750 кадра/сек (512 spf)
Битовая глубина : 16 бит
Метод сжатия : С потерями
Задержка видео : -325 мс.
Размер потока : 184 Мбайт (18%)
Аудио #2
Идентификатор : 189 (0xBD)-160 (0xA0)
Формат : PCM
Параметр Endianness формата : Big
Параметр Sign формата : Signed
Режим смешивания : DVD-Video
Продолжительность : 17 м. 3 с.
Вид битрейта : Постоянный
Битрейт : 1536 Кбит/сек
Каналы : 2 канала
Частота : 48,0 КГц
Битовая глубина : 16 бит
Задержка видео : -334 мс.
Размер потока : 187 Мбайт (18%)
Меню
Продолжительность : 17 м. 3 с.
Общее
Полное имя : T:\Torrent\Novogodnij.koncert.venskogo.filarmonicheskogo.orkestra.Best.2007.DVD-9\VIDEO_TS\VTS_01_7.VOB
Формат : MPEG-PS
Размер файла : 1016 Мбайт
Продолжительность : 16 м. 11 с.
Режим общего битрейта : Переменный
Общий поток : 8766 Кбит/сек
Видео
Идентификатор : 224 (0xE0)
Формат : MPEG Video
Версия формата : Version 2
Профиль формата : [email protected]
Параметр BVOP формата : Да
Параметр матрицы формата : Выборочная
Параметр GOP формата : Variable
Структура изображения : Frame
Продолжительность : 16 м. 11 с.
Вид битрейта : Переменный
Битрейт : 5546 Кбит/сек
Максимальный битрейт : 9800 Кбит/сек
Ширина : 720 пикселей
Высота : 480 пикселей
Соотношение сторон : 4:3
Частота кадров : 29,970 (30000/1001) кадров/сек
Стандарт вещания : NTSC
Цветовое пространство : YUV
Субдискретизация насыщенности : 4:2:0
Битовая глубина : 8 бит
Тип развёртки : Чересстрочная
Порядок развёртки : Нижнее поле первое
Метод сжатия : С потерями
Бит/(Пиксели*Кадры) : 0.535
Временной код первого кадра : 02:39:51:19
Оригинал временного кода : Group of pictures header
GOP, открыто/закрыто : Открыто
Размер потока : 642 Мбайт (63%)
Аудио #1
Идентификатор : 189 (0xBD)-137 (0x89)
Формат : DTS
Формат/Информация : Digital Theater Systems
Режим : 16
Параметр Endianness формата : Big
Режим смешивания : DVD-Video
Продолжительность : 16 м. 11 с.
Вид битрейта : Постоянный
Битрейт : 1510 Кбит/сек
Каналы : 6 каналов
Расположение каналов : Front: L C R, Side: L R, LFE
Частота : 48,0 КГц
Частота кадров : 93,750 кадра/сек (512 spf)
Битовая глубина : 16 бит
Метод сжатия : С потерями
Задержка видео : -326 мс.
Размер потока : 175 Мбайт (17%)
Аудио #2
Идентификатор : 189 (0xBD)-160 (0xA0)
Формат : PCM
Параметр Endianness формата : Big
Параметр Sign формата : Signed
Режим смешивания : DVD-Video
Продолжительность : 16 м. 11 с.
Вид битрейта : Постоянный
Битрейт : 1536 Кбит/сек
Каналы : 2 канала
Частота : 48,0 КГц
Битовая глубина : 16 бит
Задержка видео : -330 мс.
Размер потока : 178 Мбайт (18%)
Меню
Продолжительность : 16 м. 11 с.
Общее
Полное имя : T:\Torrent\Novogodnij.koncert.venskogo.filarmonicheskogo.orkestra.Best.2007.DVD-9\VIDEO_TS\VTS_02_0.BUP
Формат : DVD Video
Профиль формата : Program
Размер файла : 18,0 Кбайт
Продолжительность : 2 м. 44 с.
Режим общего битрейта : Переменный
Общий поток : 895 бит/сек
Видео
Идентификатор : 224 (0xE0)
Формат : MPEG Video
Версия формата : Version 2
Продолжительность : 2 м. 44 с.
Вид битрейта : Переменный
Ширина : 720 пикселей
Высота : 480 пикселей
Соотношение сторон : 4:3
Частота кадров : 29,970 (29970/1000) кадров/сек
Стандарт вещания : NTSC
Метод сжатия : С потерями
Аудио
Идентификатор : 0 (0x0)
Формат : PCM
Продолжительность : 2 м. 44 с.
Каналы : 2 канала
Частота : 48,0 КГц
Язык : English
Меню
Продолжительность : 2 м. 44 с.
00:00:00.000 : Chapter 1
List (Audio) : 0
Общее
Полное имя : T:\Torrent\Novogodnij.koncert.venskogo.filarmonicheskogo.orkestra.Best.2007.DVD-9\VIDEO_TS\VTS_02_0.IFO
Формат : DVD Video
Профиль формата : Program
Размер файла : 18,0 Кбайт
Продолжительность : 2 м. 44 с.
Режим общего битрейта : Переменный
Общий поток : 895 бит/сек
Видео
Идентификатор : 224 (0xE0)
Формат : MPEG Video
Версия формата : Version 2
Продолжительность : 2 м. 44 с.
Вид битрейта : Переменный
Ширина : 720 пикселей
Высота : 480 пикселей
Соотношение сторон : 4:3
Частота кадров : 29,970 (29970/1000) кадров/сек
Стандарт вещания : NTSC
Метод сжатия : С потерями
Аудио
Идентификатор : 0 (0x0)
Формат : PCM
Продолжительность : 2 м. 44 с.
Каналы : 2 канала
Частота : 48,0 КГц
Язык : English
Меню
Продолжительность : 2 м. 44 с.
00:00:00.000 : Chapter 1
List (Audio) : 0
Общее
Полное имя : T:\Torrent\Novogodnij.koncert.venskogo.filarmonicheskogo.orkestra.Best.2007.DVD-9\VIDEO_TS\VTS_02_0.VOB
Формат : MPEG-PS
Размер файла : 78,0 Кбайт
Продолжительность : 33 мс.
Общий поток : 19,4 Мбит/сек
Видео
Идентификатор : 224 (0xE0)
Формат : MPEG Video
Версия формата : Version 2
Профиль формата : [email protected]
Параметр BVOP формата : Нет
Параметр матрицы формата : Выборочная
Продолжительность : 33 мс.
Вид битрейта : Постоянный
Максимальный битрейт : 8000 Кбит/сек
Ширина : 720 пикселей
Высота : 480 пикселей
Соотношение сторон : 4:3
Частота кадров : 29,970 (30000/1001) кадров/сек
Стандарт вещания : NTSC
Цветовое пространство : YUV
Субдискретизация насыщенности : 4:2:0
Битовая глубина : 8 бит
Тип развёртки : Прогрессивная
Порядок развёртки : Верхнее поле первое
Метод сжатия : С потерями
Временной код первого кадра : 00:00:00:00
Оригинал временного кода : Group of pictures header
Текст
Идентификатор : 189 (0xBD)-32 (0x20)
Формат : RLE
Формат/Информация : Run-length encoding
Режим смешивания : DVD-Video
Меню
Общее
Полное имя : T:\Torrent\Novogodnij.koncert.venskogo.filarmonicheskogo.orkestra.Best.2007.DVD-9\VIDEO_TS\VTS_02_1.VOB
Формат : MPEG-PS
Размер файла : 128 Мбайт
Продолжительность : 2 м. 44 с.
Режим общего битрейта : Переменный
Общий поток : 6527 Кбит/сек
Видео
Идентификатор : 224 (0xE0)
Формат : MPEG Video
Версия формата : Version 2
Профиль формата : [email protected]
Параметр BVOP формата : Да
Параметр матрицы формата : Выборочная
Параметр GOP формата : M=3, N=15
Структура изображения : Frame
Продолжительность : 2 м. 44 с.
Вид битрейта : Переменный
Битрейт : 4861 Кбит/сек
Максимальный битрейт : 8260 Кбит/сек
Ширина : 720 пикселей
Высота : 480 пикселей
Соотношение сторон : 4:3
Частота кадров : 29,970 (30000/1001) кадров/сек
Стандарт вещания : NTSC
Цветовое пространство : YUV
Субдискретизация насыщенности : 4:2:0
Битовая глубина : 8 бит
Тип развёртки : Чересстрочная
Порядок развёртки : Верхнее поле первое
Метод сжатия : С потерями
Бит/(Пиксели*Кадры) : 0.469
Временной код первого кадра : 00:12:40:06
Оригинал временного кода : Group of pictures header
GOP, открыто/закрыто : Открыто
GOP, открыто/закрыто на первом кадре : Закрыто
Размер потока : 95,6 Мбайт (74%)
Аудио
Идентификатор : 189 (0xBD)-160 (0xA0)
Формат : PCM
Параметр Endianness формата : Big
Параметр Sign формата : Signed
Режим смешивания : DVD-Video
Продолжительность : 2 м. 44 с.
Вид битрейта : Постоянный
Битрейт : 1536 Кбит/сек
Каналы : 2 канала
Частота : 48,0 КГц
Битовая глубина : 16 бит
Размер потока : 30,2 Мбайт (24%)
Меню
Продолжительность : 2 м. 44 с.
Общее
Полное имя : T:\Torrent\Novogodnij.koncert.venskogo.filarmonicheskogo.orkestra.Best.2007.DVD-9\VIDEO_TS\VTS_03_0.BUP
Формат : DVD Video
Профиль формата : Program
Размер файла : 26,0 Кбайт
Продолжительность : 35 с. 500 мс.
Режим общего битрейта : Переменный
Общий поток : 6000 бит/сек
Видео
Идентификатор : 224 (0xE0)
Формат : MPEG Video
Версия формата : Version 2
Продолжительность : 35 с. 502 мс.
Вид битрейта : Переменный
Ширина : 720 пикселей
Высота : 480 пикселей
Соотношение сторон : 16:9
Частота кадров : 29,970 (29970/1000) кадров/сек
Стандарт вещания : NTSC
Метод сжатия : С потерями
Текст
Идентификатор : 33 (0x21)
Формат : RLE
Формат/Информация : Run-length encoding
Битовая глубина : 2 бит
Язык : English
Меню #1
Продолжительность : 3 с. 500 мс.
00:00:00.000 : Chapter 1
00:00:00.500 : Chapter 2
00:00:01.000 : Chapter 3
00:00:01.500 : Chapter 4
00:00:02.000 : Chapter 5
00:00:02.500 : Chapter 6
00:00:03.000 : Chapter 7
List (Subtitles 4/3) : 0
List (Subtitles Wide) : 1
List (Subtitles Letterbox) : 0
List (Subtitles Pan&Scan) : 0
Меню #2
Продолжительность : 35 с. 500 мс.
00:00:00.000 : Chapter 1 / Chapter 2 / Chapter 3 / Chapter 4 / Chapter 5 / Chapter 6 / Chapter 7 / Chapter 8 / Chapter 9 / Chapter 10 / Chapter 11 / Chapter 12 / Chapter 13 / Chapter 14 / Chapter 15 / Chapter 16 / Chapter 17 / Chapter 18 / Chapter 19 / Chapter 20 / Chapter 21 / Chapter 22 / Chapter 23 / Chapter 24 / Chapter 25 / Chapter 26 / Chapter 27 / Chapter 28 / Chapter 29 / Chapter 30 / Chapter 31 / Chapter 32 / Chapter 33 / Chapter 34 / Chapter 35 / Chapter 36 / Chapter 37 / Chapter 38 / Chapter 39 / Chapter 40 / Chapter 41 / Chapter 42 / Chapter 43 / Chapter 44 / Chapter 45 / Chapter 46 / Chapter 47 / Chapter 48 / Chapter 49 / Chapter 50 / Chapter 51 / Chapter 52 / Chapter 53 / Chapter 54 / Chapter 55 / Chapter 56 / Chapter 57 / Chapter 58 / Chapter 59 / Chapter 60 / Chapter 61 / Chapter 62 / Chapter 63 / Chapter 64 / Chapter 65 / Chapter 66 / Chapter 67 / Chapter 68 / Chapter 69 / Chapter 70 / Chapter 71
List (Subtitles 4/3) : 0
List (Subtitles Wide) : 1
List (Subtitles Letterbox) : 0
List (Subtitles Pan&Scan) : 0
Общее
Полное имя : T:\Torrent\Novogodnij.koncert.venskogo.filarmonicheskogo.orkestra.Best.2007.DVD-9\VIDEO_TS\VTS_03_0.IFO
Формат : DVD Video
Профиль формата : Program
Размер файла : 26,0 Кбайт
Продолжительность : 35 с. 500 мс.
Режим общего битрейта : Переменный
Общий поток : 6000 бит/сек
Видео
Идентификатор : 224 (0xE0)
Формат : MPEG Video
Версия формата : Version 2
Продолжительность : 35 с. 502 мс.
Вид битрейта : Переменный
Ширина : 720 пикселей
Высота : 480 пикселей
Соотношение сторон : 16:9
Частота кадров : 29,970 (29970/1000) кадров/сек
Стандарт вещания : NTSC
Метод сжатия : С потерями
Текст
Идентификатор : 33 (0x21)
Формат : RLE
Формат/Информация : Run-length encoding
Битовая глубина : 2 бит
Язык : English
Меню #1
Продолжительность : 3 с. 500 мс.
00:00:00.000 : Chapter 1
00:00:00.500 : Chapter 2
00:00:01.000 : Chapter 3
00:00:01.500 : Chapter 4
00:00:02.000 : Chapter 5
00:00:02.500 : Chapter 6
00:00:03.000 : Chapter 7
List (Subtitles 4/3) : 0
List (Subtitles Wide) : 1
List (Subtitles Letterbox) : 0
List (Subtitles Pan&Scan) : 0
Меню #2
Продолжительность : 35 с. 500 мс.
00:00:00.000 : Chapter 1 / Chapter 2 / Chapter 3 / Chapter 4 / Chapter 5 / Chapter 6 / Chapter 7 / Chapter 8 / Chapter 9 / Chapter 10 / Chapter 11 / Chapter 12 / Chapter 13 / Chapter 14 / Chapter 15 / Chapter 16 / Chapter 17 / Chapter 18 / Chapter 19 / Chapter 20 / Chapter 21 / Chapter 22 / Chapter 23 / Chapter 24 / Chapter 25 / Chapter 26 / Chapter 27 / Chapter 28 / Chapter 29 / Chapter 30 / Chapter 31 / Chapter 32 / Chapter 33 / Chapter 34 / Chapter 35 / Chapter 36 / Chapter 37 / Chapter 38 / Chapter 39 / Chapter 40 / Chapter 41 / Chapter 42 / Chapter 43 / Chapter 44 / Chapter 45 / Chapter 46 / Chapter 47 / Chapter 48 / Chapter 49 / Chapter 50 / Chapter 51 / Chapter 52 / Chapter 53 / Chapter 54 / Chapter 55 / Chapter 56 / Chapter 57 / Chapter 58 / Chapter 59 / Chapter 60 / Chapter 61 / Chapter 62 / Chapter 63 / Chapter 64 / Chapter 65 / Chapter 66 / Chapter 67 / Chapter 68 / Chapter 69 / Chapter 70 / Chapter 71
List (Subtitles 4/3) : 0
List (Subtitles Wide) : 1
List (Subtitles Letterbox) : 0
List (Subtitles Pan&Scan) : 0
Общее
Полное имя : T:\Torrent\Novogodnij.koncert.venskogo.filarmonicheskogo.orkestra.Best.2007.DVD-9\VIDEO_TS\VTS_03_0.VOB
Формат : MPEG-PS
Размер файла : 40,0 Кбайт
Продолжительность : 33 мс.
Общий поток : 9930 Кбит/сек
Видео
Идентификатор : 224 (0xE0)
Формат : MPEG Video
Версия формата : Version 2
Профиль формата : [email protected]
Параметр BVOP формата : Нет
Параметр матрицы формата : Выборочная
Продолжительность : 33 мс.
Вид битрейта : Постоянный
Максимальный битрейт : 8000 Кбит/сек
Ширина : 720 пикселей
Высота : 480 пикселей
Соотношение сторон : 16:9
Частота кадров : 29,970 (30000/1001) кадров/сек
Стандарт вещания : NTSC
Цветовое пространство : YUV
Субдискретизация насыщенности : 4:2:0
Битовая глубина : 8 бит
Тип развёртки : Прогрессивная
Порядок развёртки : Верхнее поле первое
Метод сжатия : С потерями
Временной код первого кадра : 00:00:00:00
Оригинал временного кода : Group of pictures header
Текст #1
Идентификатор : 189 (0xBD)-32 (0x20)
Формат : RLE
Формат/Информация : Run-length encoding
Режим смешивания : DVD-Video
Текст #2
Идентификатор : 189 (0xBD)-33 (0x21)
Формат : RLE
Формат/Информация : Run-length encoding
Режим смешивания : DVD-Video
Меню
Общее
Полное имя : T:\Torrent\Novogodnij.koncert.venskogo.filarmonicheskogo.orkestra.Best.2007.DVD-9\VIDEO_TS\VTS_03_1.VOB
Формат : MPEG-PS
Размер файла : 10,1 Мбайт
Продолжительность : 33 мс.
Общий поток : 2571 Мбит/сек
Видео
Идентификатор : 224 (0xE0)
Формат : MPEG Video
Версия формата : Version 2
Профиль формата : [email protected]
Параметр BVOP формата : Нет
Параметр матрицы формата : Выборочная
Параметр GOP формата : N=1
Продолжительность : 33 мс.
Вид битрейта : Постоянный
Максимальный битрейт : 8000 Кбит/сек
Ширина : 720 пикселей
Высота : 480 пикселей
Соотношение сторон : 16:9
Частота кадров : 29,970 (30000/1001) кадров/сек
Стандарт вещания : NTSC
Цветовое пространство : YUV
Субдискретизация насыщенности : 4:2:0
Битовая глубина : 8 бит
Тип развёртки : Прогрессивная
Порядок развёртки : Верхнее поле первое
Метод сжатия : С потерями
Текст #1
Идентификатор : 189 (0xBD)-32 (0x20)
Формат : RLE
Формат/Информация : Run-length encoding
Режим смешивания : DVD-Video
Текст #2
Идентификатор : 189 (0xBD)-33 (0x21)
Формат : RLE
Формат/Информация : Run-length encoding
Режим смешивания : DVD-Video
Меню
Общее
Полное имя : T:\Torrent\Novogodnij.koncert.venskogo.filarmonicheskogo.orkestra.Best.2007.DVD-9\VIDEO_TS\VTS_04_0.BUP
Формат : DVD Video
Профиль формата : Program
Размер файла : 10,0 Кбайт
Продолжительность : 16 с. 0 мс.
Режим общего битрейта : Переменный
Общий поток : 5120 бит/сек
Видео
Идентификатор : 224 (0xE0)
Формат : MPEG Video
Версия формата : Version 2
Продолжительность : 16 с. 16 мс.
Вид битрейта : Переменный
Ширина : 720 пикселей
Высота : 480 пикселей
Соотношение сторон : 4:3
Частота кадров : 29,970 (29970/1000) кадров/сек
Стандарт вещания : NTSC
Метод сжатия : С потерями
Аудио
Идентификатор : 0 (0x0)
Формат : PCM
Продолжительность : 16 с. 0 мс.
Каналы : 2 канала
Частота : 48,0 КГц
Язык : English
Меню #1
Продолжительность : 10 с. 0 мс.
00:00:00.000 : Chapter 1
List (Audio) : 0
Меню #2
Продолжительность : 16 с. 0 мс.
00:00:00.000 : Chapter 1
List (Audio) : 0
Меню #3
Общее
Полное имя : T:\Torrent\Novogodnij.koncert.venskogo.filarmonicheskogo.orkestra.Best.2007.DVD-9\VIDEO_TS\VTS_04_0.IFO
Формат : DVD Video
Профиль формата : Program
Размер файла : 10,0 Кбайт
Продолжительность : 16 с. 0 мс.
Режим общего битрейта : Переменный
Общий поток : 5120 бит/сек
Видео
Идентификатор : 224 (0xE0)
Формат : MPEG Video
Версия формата : Version 2
Продолжительность : 16 с. 16 мс.
Вид битрейта : Переменный
Ширина : 720 пикселей
Высота : 480 пикселей
Соотношение сторон : 4:3
Частота кадров : 29,970 (29970/1000) кадров/сек
Стандарт вещания : NTSC
Метод сжатия : С потерями
Аудио
Идентификатор : 0 (0x0)
Формат : PCM
Продолжительность : 16 с. 0 мс.
Каналы : 2 канала
Частота : 48,0 КГц
Язык : English
Меню #1
Продолжительность : 10 с. 0 мс.
00:00:00.000 : Chapter 1
List (Audio) : 0
Меню #2
Продолжительность : 16 с. 0 мс.
00:00:00.000 : Chapter 1
List (Audio) : 0
Меню #3
Общее
Полное имя : T:\Torrent\Novogodnij.koncert.venskogo.filarmonicheskogo.orkestra.Best.2007.DVD-9\VIDEO_TS\VTS_04_1.VOB
Формат : MPEG-PS
Размер файла : 20,2 Мбайт
Продолжительность : 10 с. 17 мс.
Режим общего битрейта : Постоянный
Общий поток : 17,0 Мбит/сек
Видео
Идентификатор : 224 (0xE0)
Формат : MPEG Video
Версия формата : Version 2
Профиль формата : [email protected]
Параметр BVOP формата : Да
Параметр матрицы формата : Выборочная
Параметр GOP формата : Variable
Структура изображения : Frame
Продолжительность : 83 мс.
Вид битрейта : Постоянный
Битрейт : 15,1 Мбит/сек
Максимальный битрейт : 8000 Кбит/сек
Ширина : 720 пикселей
Высота : 480 пикселей
Соотношение сторон : 4:3
Частота кадров : 29,970 (30000/1001) кадров/сек
Стандарт вещания : NTSC
Цветовое пространство : YUV
Субдискретизация насыщенности : 4:2:0
Битовая глубина : 8 бит
Тип развёртки : Чересстрочная
Порядок развёртки : Нижнее поле первое
Метод сжатия : С потерями
Бит/(Пиксели*Кадры) : 1.456
Временной код первого кадра : 09:59:59:15
Оригинал временного кода : Group of pictures header
GOP, открыто/закрыто : Открыто
GOP, открыто/закрыто на первом кадре : Закрыто
Размер потока : 123 Кбайт (1%)
Аудио
Идентификатор : 189 (0xBD)-160 (0xA0)
Формат : PCM
Параметр Endianness формата : Big
Параметр Sign формата : Signed
Режим смешивания : DVD-Video
Продолжительность : 10 с. 17 мс.
Вид битрейта : Постоянный
Битрейт : 1536 Кбит/сек
Каналы : 2 канала
Частота : 48,0 КГц
Битовая глубина : 16 бит
Размер потока : 1,83 Мбайт (9%)
Меню
Продолжительность : 10 с. 17 мс.

Скриншоты





Ви не можете починати теми
Ви не можете відповідати на повідомлення
Ви не можете редагувати свої повідомлення
Ви не можете видаляти свої повідомлення
Ви не можете голосувати в опитуваннях
Ви не можете прикріплювати файли до повідомлень
Ви можете скачувати файли