Новогодний концерт Венского филармонического оркестра (Герберт фон Караян) / Neujahrskonzert der Wiener Philharmoniker (Herbert von Karajan) [1987, Classical, DVD9]


Статистика роздачі [Оновити пиров]
Розмір:  5,59 GB   |    Зареєстрований:  1 рік   |    Скачано:  0 раз

Повного джерела не було: Ніколи

by Козак ®
09-Бер-2018 20:18


Новогодний концерт Венского филармонического оркестра (Герберт фон Караян) / Neujahrskonzert der Wiener Philharmoniker (Herbert von Karajan) [1987, Classical, DVD9]

Новогодний концерт Венского филармонического оркестра 1987 / Neujahrskonzert der Wiener Philharmoniker 1987
Год выпуска: 1987
Лейбл: Sony Classical
Страна-производитель: Германия
Жанр: Classical
Продолжительность: 01:38:00
Язык: Английский
Перевод: Не требуется
Субтитры: Нет
Режиссер: Humphrey Burton (Хумпхрей Буртон)
Исполнители: Wiener Philharmoniker (Венский филармонический оркестр), дирижер Herbert von Karajan (Герберт фон Караян), Kathleen Battle (Кэтлин Баттл) (soprano), Ballet of The Vienna State Opera (Балет Венской государственной оперы)
Треклист:
01. Johann Strauss, Jr. (1825-1899) – Der Zigeunerbaron, Ouvertüre
02. Josef Strauss (1827-1870) – Sphärenklänge, Walzer, op. 235
03. Johann Strauss II – Annen-Polka, Polka francaise, op. 117
04. Josef Strauss – Delirien-Walzer, op. 212
05. Johann Strauss, Jr. – Die Fledermaus, Ouvertüre
06. Johann Strauss, Sr. (1804-1849) – Beliebte Annen-Polka, Polka francaise, op. 137
07. Johann Strauss, Jr. – Vergnügungszug, Polka schnell, op. 281 -
08. Johann (Jr.) & Josef Strauss – Pizzicato Polka
09. Johann Strauss Jr. – Kaiser-Walzer, op. 43
10. Johann Strauss, Jr. – Perpetuum Mobile, Musikalischer Scherz, op. 257
11. Johann Strauss, Jr. – Unter Donner und Blitz, Polka schnell, op. 324
12. Johann Strauss Jr. – Frühlingsstimmen, Walzer, op. 410; Kathleen Battle - Sopran
13. Josef Strauss – Ohne Sorgen, Polka schnell, op. 271
14. Johann Strauss, Jr. – An der Schönen, Blauen Donau, Walzer, op. 314,
15. Johann Strauss Jr. – Radetzky-Marsch, op. 228
Описание: Новогодний концерт Венского филармонического оркестра. Уже давно стало традицией филармонии на Новый год представить программу, состоящую из живой и в то же время ностальгической музыки главным образом из огромного репертуара семейства Штраусов и их современников. Эти концерты вызывают восторг не только у аудитории в Musikverein в Вене, но и пользуются большой международной популярностью благодаря телевизионной трансляции, которая сейчас достигает более 50 стран.
Бонус: Биография дирижера
https://www.amazon.de/Neujahrskonzert-Wien-1987-Wiener-Philharmoniker/dp/B000F3AI9U
Качество видео: DVD9
Формат/Контейнер: DVDVideo
Видео кодек: MPEG2
Аудио кодек: PCM
Видео поток: NTSC 4:3 (720x576) VBR
Аудио поток 1: LinearPCM, 2 ch
Аудио поток 2: Dolby AC3, 6 ch

DVD-Info

Общее
Полное имя : T:\Torrent\Novogodnij.koncert.venskogo.filarmonicheskogo.orkestra.1987.DVD-9\VIDEO_TS\VIDEO_TS.BUP
Формат : DVD Video
Профиль формата : Menu
Размер файла : 6,00 Кбайт
Режим общего битрейта : Переменный
FileExtension_Invalid : ifo
Видео
Идентификатор : 224 (0xE0)
Формат : MPEG Video
Версия формата : Version 1
Вид битрейта : Переменный
Ширина : 720 пикселей
Высота : 480 пикселей
Соотношение сторон : 4:3
Частота кадров : 29,970 (29970/1000) кадров/сек
Стандарт вещания : NTSC
Метод сжатия : С потерями
Общее
Полное имя : T:\Torrent\Novogodnij.koncert.venskogo.filarmonicheskogo.orkestra.1987.DVD-9\VIDEO_TS\VIDEO_TS.IFO
Формат : DVD Video
Профиль формата : Menu
Размер файла : 6,00 Кбайт
Режим общего битрейта : Переменный
Видео
Идентификатор : 224 (0xE0)
Формат : MPEG Video
Версия формата : Version 1
Вид битрейта : Переменный
Ширина : 720 пикселей
Высота : 480 пикселей
Соотношение сторон : 4:3
Частота кадров : 29,970 (29970/1000) кадров/сек
Стандарт вещания : NTSC
Метод сжатия : С потерями
Общее
Полное имя : T:\Torrent\Novogodnij.koncert.venskogo.filarmonicheskogo.orkestra.1987.DVD-9\VIDEO_TS\VTS_01_0.BUP
Формат : DVD Video
Профиль формата : Program
Размер файла : 72,0 Кбайт
Продолжительность : 1 ч. 38 м.
Режим общего битрейта : Переменный
Общий поток : 100 бит/сек
FileExtension_Invalid : ifo
Видео
Идентификатор : 224 (0xE0)
Формат : MPEG Video
Версия формата : Version 2
Продолжительность : 1 ч. 38 м.
Вид битрейта : Переменный
Ширина : 720 пикселей
Высота : 576 пикселей
Соотношение сторон : 4:3
Частота кадров : 25,000 кадров/сек
Стандарт вещания : PAL
Метод сжатия : С потерями
Аудио #1
Идентификатор : 0 (0x0)
Формат : PCM
Продолжительность : 1 ч. 38 м.
Каналы : 2 канала
Частота : 48,0 КГц
Язык : English
Аудио #2
Идентификатор : 129 (0x81)
Формат : AC-3
Формат/Информация : Audio Coding 3
Продолжительность : 1 ч. 38 м.
Каналы : 6 каналов
Частота : 48,0 КГц
Метод сжатия : С потерями
Язык : English
Меню
Продолжительность : 1 ч. 38 м.
00:00:00.000 : Chapter 1
00:01:00.800 : Chapter 2
00:10:04.000 : Chapter 3
00:19:32.880 : Chapter 4
00:23:56.280 : Chapter 5
00:33:26.920 : Chapter 6
00:42:23.560 : Chapter 7
00:45:52.440 : Chapter 8
00:48:49.200 : Chapter 9
00:51:45.400 : Chapter 10
01:03:23.720 : Chapter 11
01:06:35.640 : Chapter 12
01:10:05.200 : Chapter 13
01:19:15.560 : Chapter 14
01:21:22.840 : Chapter 15
01:31:52.200 : Chapter 16
01:37:57.000 : Chapter 17
List (Audio) : 0 / 1
Общее
Полное имя : T:\Torrent\Novogodnij.koncert.venskogo.filarmonicheskogo.orkestra.1987.DVD-9\VIDEO_TS\VTS_01_0.IFO
Формат : DVD Video
Профиль формата : Program
Размер файла : 72,0 Кбайт
Продолжительность : 1 ч. 38 м.
Режим общего битрейта : Переменный
Общий поток : 100 бит/сек
Видео
Идентификатор : 224 (0xE0)
Формат : MPEG Video
Версия формата : Version 2
Продолжительность : 1 ч. 38 м.
Вид битрейта : Переменный
Ширина : 720 пикселей
Высота : 576 пикселей
Соотношение сторон : 4:3
Частота кадров : 25,000 кадров/сек
Стандарт вещания : PAL
Метод сжатия : С потерями
Аудио #1
Идентификатор : 0 (0x0)
Формат : PCM
Продолжительность : 1 ч. 38 м.
Каналы : 2 канала
Частота : 48,0 КГц
Язык : English
Аудио #2
Идентификатор : 129 (0x81)
Формат : AC-3
Формат/Информация : Audio Coding 3
Продолжительность : 1 ч. 38 м.
Каналы : 6 каналов
Частота : 48,0 КГц
Метод сжатия : С потерями
Язык : English
Меню
Продолжительность : 1 ч. 38 м.
00:00:00.000 : Chapter 1
00:01:00.800 : Chapter 2
00:10:04.000 : Chapter 3
00:19:32.880 : Chapter 4
00:23:56.280 : Chapter 5
00:33:26.920 : Chapter 6
00:42:23.560 : Chapter 7
00:45:52.440 : Chapter 8
00:48:49.200 : Chapter 9
00:51:45.400 : Chapter 10
01:03:23.720 : Chapter 11
01:06:35.640 : Chapter 12
01:10:05.200 : Chapter 13
01:19:15.560 : Chapter 14
01:21:22.840 : Chapter 15
01:31:52.200 : Chapter 16
01:37:57.000 : Chapter 17
List (Audio) : 0 / 1
Общее
Полное имя : T:\Torrent\Novogodnij.koncert.venskogo.filarmonicheskogo.orkestra.1987.DVD-9\VIDEO_TS\VTS_01_0.VOB
Формат : MPEG-PS
Размер файла : 28,4 Мбайт
Продолжительность : 57 с. 0 мс.
Режим общего битрейта : Переменный
Общий поток : 4178 Кбит/сек
Видео
Идентификатор : 224 (0xE0)
Формат : MPEG Video
Версия формата : Version 2
Профиль формата : [email protected]
Настройки формата : CustomMatrix / BVOP
Параметр BVOP формата : Да
Параметр матрицы формата : Выборочная
Параметр GOP формата : Variable
Продолжительность : 57 с. 0 мс.
Вид битрейта : Переменный
Битрейт : 4095 Кбит/сек
Максимальный битрейт : 9800 Кбит/сек
Ширина : 720 пикселей
Высота : 576 пикселей
Соотношение сторон : 4:3
Частота кадров : 25,000 кадров/сек
Стандарт вещания : PAL
Цветовое пространство : YUV
Субдискретизация насыщенности : 4:2:0
Битовая глубина : 8 бит
Метод сжатия : С потерями
Бит/(Пиксели*Кадры) : 0.395
Размер потока : 27,8 Мбайт (98%)
Текст
Идентификатор : 189 (0xBD)-32 (0x20)
Формат : RLE
Формат/Информация : Run-length encoding
Режим смешивания : DVD-Video
Продолжительность : 56 с. 0 мс.
Меню
Общее
Полное имя : T:\Torrent\Novogodnij.koncert.venskogo.filarmonicheskogo.orkestra.1987.DVD-9\VIDEO_TS\VTS_01_1.VOB
Формат : MPEG-PS
Размер файла : 1024 Мбайт
Продолжительность : 18 м. 5 с.
Режим общего битрейта : Переменный
Общий поток : 7913 Кбит/сек
Видео
Идентификатор : 224 (0xE0)
Формат : MPEG Video
Версия формата : Version 2
Профиль формата : [email protected]
Настройки формата : CustomMatrix / BVOP
Параметр BVOP формата : Да
Параметр матрицы формата : Выборочная
Параметр GOP формата : M=3, N=12
Структура изображения : Frame
Продолжительность : 18 м. 5 с.
Вид битрейта : Переменный
Битрейт : 5772 Кбит/сек
Максимальный битрейт : 9800 Кбит/сек
Ширина : 720 пикселей
Высота : 576 пикселей
Соотношение сторон : 4:3
Частота кадров : 25,000 кадров/сек
Стандарт вещания : PAL
Цветовое пространство : YUV
Субдискретизация насыщенности : 4:2:0
Битовая глубина : 8 бит
Тип развёртки : Чересстрочная
Порядок развёртки : Верхнее поле первое
Метод сжатия : С потерями
Бит/(Пиксели*Кадры) : 0.557
Размер потока : 747 Мбайт (73%)
Аудио #1
Идентификатор : 189 (0xBD)-129 (0x81)
Формат : AC-3
Формат/Информация : Audio Coding 3
Режим смешивания : DVD-Video
Продолжительность : 18 м. 5 с.
Вид битрейта : Постоянный
Битрейт : 448 Кбит/сек
Каналы : 6 каналов
Расположение каналов : Front: L C R, Side: L R, LFE
Частота : 48,0 КГц
Частота кадров : 31,250 кадров/сек (1536 SPF)
Битовая глубина : 16 бит
Метод сжатия : С потерями
Размер потока : 58,0 Мбайт (6%)
ServiceKind/String : Complete Main
Аудио #2
Идентификатор : 189 (0xBD)-160 (0xA0)
Формат : PCM
Настройки формата : Big / Signed
Режим смешивания : DVD-Video
Продолжительность : 18 м. 5 с.
Вид битрейта : Постоянный
Битрейт : 1536 Кбит/сек
Каналы : 2 канала
Частота : 48,0 КГц
Битовая глубина : 16 бит
Размер потока : 199 Мбайт (19%)
Меню
Общее
Полное имя : T:\Torrent\Novogodnij.koncert.venskogo.filarmonicheskogo.orkestra.1987.DVD-9\VIDEO_TS\VTS_01_2.VOB
Формат : MPEG-PS
Размер файла : 1024 Мбайт
Продолжительность : 16 м. 54 с.
Режим общего битрейта : Переменный
Общий поток : 8468 Кбит/сек
Видео
Идентификатор : 224 (0xE0)
Формат : MPEG Video
Версия формата : Version 2
Профиль формата : [email protected]
Настройки формата : CustomMatrix / BVOP
Параметр BVOP формата : Да
Параметр матрицы формата : Выборочная
Параметр GOP формата : M=3, N=12
Структура изображения : Frame
Продолжительность : 16 м. 54 с.
Вид битрейта : Переменный
Битрейт : 6315 Кбит/сек
Максимальный битрейт : 9800 Кбит/сек
Ширина : 720 пикселей
Высота : 576 пикселей
Соотношение сторон : 4:3
Частота кадров : 25,000 кадров/сек
Стандарт вещания : PAL
Цветовое пространство : YUV
Субдискретизация насыщенности : 4:2:0
Битовая глубина : 8 бит
Тип развёртки : Чересстрочная
Порядок развёртки : Верхнее поле первое
Метод сжатия : С потерями
Бит/(Пиксели*Кадры) : 0.609
Размер потока : 763 Мбайт (75%)
Аудио #1
Идентификатор : 189 (0xBD)-129 (0x81)
Формат : AC-3
Формат/Информация : Audio Coding 3
Режим смешивания : DVD-Video
Продолжительность : 16 м. 54 с.
Вид битрейта : Постоянный
Битрейт : 448 Кбит/сек
Каналы : 6 каналов
Расположение каналов : Front: L C R, Side: L R, LFE
Частота : 48,0 КГц
Частота кадров : 31,250 кадров/сек (1536 SPF)
Битовая глубина : 16 бит
Метод сжатия : С потерями
Задержка видео : -432 мс.
Размер потока : 54,2 Мбайт (5%)
ServiceKind/String : Complete Main
Аудио #2
Идентификатор : 189 (0xBD)-160 (0xA0)
Формат : PCM
Настройки формата : Big / Signed
Режим смешивания : DVD-Video
Продолжительность : 16 м. 54 с.
Вид битрейта : Постоянный
Битрейт : 1536 Кбит/сек
Каналы : 2 канала
Частота : 48,0 КГц
Битовая глубина : 16 бит
Задержка видео : -517 мс.
Размер потока : 186 Мбайт (18%)
Меню
Общее
Полное имя : T:\Torrent\Novogodnij.koncert.venskogo.filarmonicheskogo.orkestra.1987.DVD-9\VIDEO_TS\VTS_01_3.VOB
Формат : MPEG-PS
Размер файла : 1024 Мбайт
Продолжительность : 17 м. 56 с.
Режим общего битрейта : Переменный
Общий поток : 7979 Кбит/сек
Видео
Идентификатор : 224 (0xE0)
Формат : MPEG Video
Версия формата : Version 2
Профиль формата : [email protected]
Настройки формата : CustomMatrix / BVOP
Параметр BVOP формата : Да
Параметр матрицы формата : Выборочная
Параметр GOP формата : M=3, N=12
Структура изображения : Frame
Продолжительность : 17 м. 56 с.
Вид битрейта : Переменный
Битрейт : 5836 Кбит/сек
Максимальный битрейт : 9800 Кбит/сек
Ширина : 720 пикселей
Высота : 576 пикселей
Соотношение сторон : 4:3
Частота кадров : 25,000 кадров/сек
Стандарт вещания : PAL
Цветовое пространство : YUV
Субдискретизация насыщенности : 4:2:0
Битовая глубина : 8 бит
Тип развёртки : Чересстрочная
Порядок развёртки : Верхнее поле первое
Метод сжатия : С потерями
Бит/(Пиксели*Кадры) : 0.563
Размер потока : 749 Мбайт (73%)
Аудио #1
Идентификатор : 189 (0xBD)-129 (0x81)
Формат : AC-3
Формат/Информация : Audio Coding 3
Режим смешивания : DVD-Video
Продолжительность : 17 м. 56 с.
Вид битрейта : Постоянный
Битрейт : 448 Кбит/сек
Каналы : 6 каналов
Расположение каналов : Front: L C R, Side: L R, LFE
Частота : 48,0 КГц
Частота кадров : 31,250 кадров/сек (1536 SPF)
Битовая глубина : 16 бит
Метод сжатия : С потерями
Задержка видео : -272 мс.
Размер потока : 57,5 Мбайт (6%)
ServiceKind/String : Complete Main
Аудио #2
Идентификатор : 189 (0xBD)-160 (0xA0)
Формат : PCM
Настройки формата : Big / Signed
Режим смешивания : DVD-Video
Продолжительность : 17 м. 56 с.
Вид битрейта : Постоянный
Битрейт : 1536 Кбит/сек
Каналы : 2 канала
Частота : 48,0 КГц
Битовая глубина : 16 бит
Задержка видео : -319 мс.
Размер потока : 197 Мбайт (19%)
Меню
Общее
Полное имя : T:\Torrent\Novogodnij.koncert.venskogo.filarmonicheskogo.orkestra.1987.DVD-9\VIDEO_TS\VTS_01_4.VOB
Формат : MPEG-PS
Размер файла : 1024 Мбайт
Продолжительность : 17 м. 6 с.
Режим общего битрейта : Переменный
Общий поток : 8372 Кбит/сек
Видео
Идентификатор : 224 (0xE0)
Формат : MPEG Video
Версия формата : Version 2
Профиль формата : [email protected]
Настройки формата : CustomMatrix / BVOP
Параметр BVOP формата : Да
Параметр матрицы формата : Выборочная
Параметр GOP формата : M=3, N=12
Структура изображения : Frame
Продолжительность : 17 м. 6 с.
Вид битрейта : Переменный
Битрейт : 6221 Кбит/сек
Максимальный битрейт : 9800 Кбит/сек
Ширина : 720 пикселей
Высота : 576 пикселей
Соотношение сторон : 4:3
Частота кадров : 25,000 кадров/сек
Стандарт вещания : PAL
Цветовое пространство : YUV
Субдискретизация насыщенности : 4:2:0
Битовая глубина : 8 бит
Тип развёртки : Чересстрочная
Порядок развёртки : Верхнее поле первое
Метод сжатия : С потерями
Бит/(Пиксели*Кадры) : 0.600
Размер потока : 761 Мбайт (74%)
Аудио #1
Идентификатор : 189 (0xBD)-129 (0x81)
Формат : AC-3
Формат/Информация : Audio Coding 3
Режим смешивания : DVD-Video
Продолжительность : 17 м. 6 с.
Вид битрейта : Постоянный
Битрейт : 448 Кбит/сек
Каналы : 6 каналов
Расположение каналов : Front: L C R, Side: L R, LFE
Частота : 48,0 КГц
Частота кадров : 31,250 кадров/сек (1536 SPF)
Битовая глубина : 16 бит
Метод сжатия : С потерями
Задержка видео : -136 мс.
Размер потока : 54,8 Мбайт (5%)
ServiceKind/String : Complete Main
Аудио #2
Идентификатор : 189 (0xBD)-160 (0xA0)
Формат : PCM
Настройки формата : Big / Signed
Режим смешивания : DVD-Video
Продолжительность : 17 м. 6 с.
Вид битрейта : Постоянный
Битрейт : 1536 Кбит/сек
Каналы : 2 канала
Частота : 48,0 КГц
Битовая глубина : 16 бит
Задержка видео : -179 мс.
Размер потока : 188 Мбайт (18%)
Меню
Общее
Полное имя : T:\Torrent\Novogodnij.koncert.venskogo.filarmonicheskogo.orkestra.1987.DVD-9\VIDEO_TS\VTS_01_5.VOB
Формат : MPEG-PS
Размер файла : 1024 Мбайт
Продолжительность : 18 м. 28 с.
Режим общего битрейта : Переменный
Общий поток : 7747 Кбит/сек
Видео
Идентификатор : 224 (0xE0)
Формат : MPEG Video
Версия формата : Version 2
Профиль формата : [email protected]
Настройки формата : CustomMatrix / BVOP
Параметр BVOP формата : Да
Параметр матрицы формата : Выборочная
Параметр GOP формата : M=3, N=12
Структура изображения : Frame
Продолжительность : 18 м. 28 с.
Вид битрейта : Переменный
Битрейт : 5609 Кбит/сек
Максимальный битрейт : 9800 Кбит/сек
Ширина : 720 пикселей
Высота : 576 пикселей
Соотношение сторон : 4:3
Частота кадров : 25,000 кадров/сек
Стандарт вещания : PAL
Цветовое пространство : YUV
Субдискретизация насыщенности : 4:2:0
Битовая глубина : 8 бит
Тип развёртки : Чересстрочная
Порядок развёртки : Верхнее поле первое
Метод сжатия : С потерями
Бит/(Пиксели*Кадры) : 0.541
Размер потока : 741 Мбайт (72%)
Аудио #1
Идентификатор : 189 (0xBD)-129 (0x81)
Формат : AC-3
Формат/Информация : Audio Coding 3
Режим смешивания : DVD-Video
Продолжительность : 18 м. 28 с.
Вид битрейта : Постоянный
Битрейт : 448 Кбит/сек
Каналы : 6 каналов
Расположение каналов : Front: L C R, Side: L R, LFE
Частота : 48,0 КГц
Частота кадров : 31,250 кадров/сек (1536 SPF)
Битовая глубина : 16 бит
Метод сжатия : С потерями
Задержка видео : -264 мс.
Размер потока : 59,2 Мбайт (6%)
ServiceKind/String : Complete Main
Аудио #2
Идентификатор : 189 (0xBD)-160 (0xA0)
Формат : PCM
Настройки формата : Big / Signed
Режим смешивания : DVD-Video
Продолжительность : 18 м. 28 с.
Вид битрейта : Постоянный
Битрейт : 1536 Кбит/сек
Каналы : 2 канала
Частота : 48,0 КГц
Битовая глубина : 16 бит
Задержка видео : -320 мс.
Размер потока : 203 Мбайт (20%)
Меню
Общее
Полное имя : T:\Torrent\Novogodnij.koncert.venskogo.filarmonicheskogo.orkestra.1987.DVD-9\VIDEO_TS\VTS_01_6.VOB
Формат : MPEG-PS
Размер файла : 571 Мбайт
Продолжительность : 9 м. 28 с.
Режим общего битрейта : Переменный
Общий поток : 8416 Кбит/сек
Видео
Идентификатор : 224 (0xE0)
Формат : MPEG Video
Версия формата : Version 2
Профиль формата : [email protected]
Настройки формата : CustomMatrix / BVOP
Параметр BVOP формата : Да
Параметр матрицы формата : Выборочная
Параметр GOP формата : M=3, N=12
Структура изображения : Frame
Продолжительность : 9 м. 28 с.
Вид битрейта : Переменный
Битрейт : 6264 Кбит/сек
Максимальный битрейт : 9800 Кбит/сек
Ширина : 720 пикселей
Высота : 576 пикселей
Соотношение сторон : 4:3
Частота кадров : 25,000 кадров/сек
Стандарт вещания : PAL
Цветовое пространство : YUV
Субдискретизация насыщенности : 4:2:0
Битовая глубина : 8 бит
Тип развёртки : Чересстрочная
Порядок развёртки : Верхнее поле первое
Метод сжатия : С потерями
Бит/(Пиксели*Кадры) : 0.604
Размер потока : 424 Мбайт (74%)
Аудио #1
Идентификатор : 189 (0xBD)-129 (0x81)
Формат : AC-3
Формат/Информация : Audio Coding 3
Режим смешивания : DVD-Video
Продолжительность : 9 м. 28 с.
Вид битрейта : Постоянный
Битрейт : 448 Кбит/сек
Каналы : 6 каналов
Расположение каналов : Front: L C R, Side: L R, LFE
Частота : 48,0 КГц
Частота кадров : 31,250 кадров/сек (1536 SPF)
Битовая глубина : 16 бит
Метод сжатия : С потерями
Задержка видео : -232 мс.
Размер потока : 30,4 Мбайт (5%)
ServiceKind/String : Complete Main
Аудио #2
Идентификатор : 189 (0xBD)-160 (0xA0)
Формат : PCM
Настройки формата : Big / Signed
Режим смешивания : DVD-Video
Продолжительность : 9 м. 28 с.
Вид битрейта : Постоянный
Битрейт : 1536 Кбит/сек
Каналы : 2 канала
Частота : 48,0 КГц
Битовая глубина : 16 бит
Задержка видео : -264 мс.
Размер потока : 104 Мбайт (18%)
Меню

Скриншоты





Ви не можете починати теми
Ви не можете відповідати на повідомлення
Ви не можете редагувати свої повідомлення
Ви не можете видаляти свої повідомлення
Ви не можете голосувати в опитуваннях
Ви не можете прикріплювати файли до повідомлень
Ви можете скачувати файли