Beethoven - Symphony No.9 in D minor (Simona Saturova; Mihoko Fujimura; Christian Elsner; Christian Gerhaher; Gewandhausorchester Leipzig / Herbert Blomstedt) [2016, Classical, Blu-ray]


Статистика роздачі [Оновити пиров]
Розмір:  20,86 GB   |    Зареєстрований:  1 рік   |    Скачано:  0 раз

Повного джерела не було: Ніколи

by Козак ®
09-Бер-2018 20:18


Beethoven - Symphony No.9 in D minor (Simona Saturova; Mihoko Fujimura; Christian Elsner; Christian Gerhaher; Gewandhausorchester Leipzig / Herbert Blomstedt) [2016, Classical, Blu-ray]


Beethoven - Symphony No.9 in D minor (Simona Saturova; Mihoko Fujimura; Christian Elsner; Christian Gerhaher; Gewandhausorchester Leipzig / Herbert Blomstedt)

Год выпуска: 2016
Лейбл: Accentus Music
Страна-производитель: Germany
Жанр: Classical
Продолжительность: 01:14:13
Язык: German
Субтитры: German, French, English, Korean, Japanese
Исполнители:
Simona Šaturová (soprano),
Mihoko Fujimura (alto),
Christian Elsner (tenor),
Christian Gerhaher (baritone),
MDR Rundfunkchor,
GewandhausChor,
GewandhausKinderchor,
Gewandhausorchester Leipzig / Herbert Blomstedt
Треклист:

Main Video

[1] Opening _____ 1:10
Beethoven - Symphony No.9 in D minor, Op.125 "Choral"
[2] I. Allegro ma non troppo, un poco maestoso _____ 15:13
[3] II. Molto vivace - Presto _____ 14:08
[4] III. Adagio molto e cantabile _____ 14:05
[5] IV. Presto : "Freunde nicht diese Töne" -
Allegro assai : "Freude, schöner Götterfunken" -
Andante maestoso - Allegro energico, sempre ben marcato _____ 26:33
[6] Credits _____ 3:04

Additional Videos

1. video clip (01:12) : короткий клип основного видео, short clip of main video
2. trailer #1 (05:22) : Berg - Wozzeck / Fabio Luisi & Philharmonia Zürich (Blu-ray / DVD, 2016)
3. trailer #2 (04:32) : Brahms, Schoenberg & Beethoven / Claudio Abbado & Lucerne Festival Orchestra (Blu-ray / DVD, 2013)
4. trailer #3 (04:25) : Mahler - Symphony No.2 / Riccardo Chailly & Gewandhausorchester Leipzig (Blu-ray / DVD, 2011)
5. trailer #4 (04:20) : Mahler - Symphony No.8 / Riccardo Chailly & Gewandhausorchester Leipzig (Blu-ray / DVD, 2011)
Описание:
Ludwig van Beethoven’s 9th Symphony and the musical city of Leipzig are closely intertwined with each other: Felix Mendelssohn, Kapellmeister of the Gewandhausorchester, made the work an indispensable part of the concert hall repertoire and Arthur Nikisch, one of his successors, established in 1918 the worldwide tradition of performing this groundbreaking and pioneering work at the end of the year. The phenomenal Herbert Blomstedt, Gewandhaus-kapellmeister from 1998 to 2005, once again conducted Beethoven’s Ninth in Leipzig for the 2016 New Year celebrations.
With his former orchestra, of which he has been Conductor Laureate since 2005 and with whom he enjoys a close friendship, he achieves a gripping interpretation of this monumental work. Under the direction of Blomstedt, together with his excellent musicians, the choirs, and an outstanding quartet of soloists led by the magnificent voice of Christian Gerhaher, the utopia of global freedom and humanity in Friedrich Schiller’s “Ode to Joy,” penned in Leipzig in 1785, grows to overwhelming dimensions.
Качество видео: Blu-ray
Формат/Контейнер: BDMV
Видео кодек: MPEG-4 AVC Video
Аудио кодек: LPCM, DTS
Видео поток: MPEG-4 AVC Video / 25968 kbps / 1080i / 29.970 fps / 16:9 / High Profile 4.1
Аудио поток #1: German / DTS-HD Master Audio / 5.1 / 48 kHz / 4008 kbps / 24-bit (DTS Core: 5.1 / 48 kHz / 1509 kbps / 24-bit)
Аудио поток #2: German / LPCM Audio / 2.0 / 48 kHz / 2304 kbps / 24-bit
Дополнительная информация:
Artwork : https://goo.gl/SDizoQ

BDInfo Report

Disc Title: Blomstedt Beethoven 9
Disc Size: 22,403,034,590 bytes
Protection: AACS
BD-Java: Yes
BDInfo: 0.5.8
Notes:
BDINFO HOME:
Cinema Squid
http://www.cinemasquid.com/blu-ray/tools/bdinfo
INCLUDES FORUMS REPORT FOR:
AVS Forum Blu-ray Audio and Video Specifications Thread
http://www.avsforum.com/avs-vb/showthread.php?t=1155731
********************
PLAYLIST: 00003.MPLS
********************
Total   Video
Title                                                           Codec   Length  Movie Size      Disc Size       Bitrate Bitrate Main Audio Track                          Secondary Audio Track
-----                                                           ------  ------- --------------  --------------  ------- ------- ------------------                        ---------------------
00003.MPLS                                                      AVC     1:14:12 18,970,899,840  22,403,034,590  34.09   25.97   DTS-HD Master 5.1 4008Kbps (48kHz/24-bit) LPCM 2.0 2304Kbps (48kHz/24-bit)
DISC INFO:
Disc Title:     Blomstedt Beethoven 9
Disc Size:      22,403,034,590 bytes
Protection:     AACS
BD-Java:        Yes
BDInfo:         0.5.8
PLAYLIST REPORT:
Name:                   00003.MPLS
Length:                 1:14:12.548 (h:m:s.ms)
Size:                   18,970,899,840 bytes
Total Bitrate:          34.09 Mbps
VIDEO:
Codec                   Bitrate             Description
-----                   -------             -----------
MPEG-4 AVC Video        25968 kbps          1080i / 29.970 fps / 16:9 / High Profile 4.1
AUDIO:
Codec                           Language        Bitrate         Description
-----                           --------        -------         -----------
DTS-HD Master Audio             German          4008 kbps       5.1 / 48 kHz / 4008 kbps / 24-bit (DTS Core: 5.1 / 48 kHz / 1509 kbps / 24-bit)
LPCM Audio                      German          2304 kbps       2.0 / 48 kHz / 2304 kbps / 24-bit
SUBTITLES:
Codec                           Language        Bitrate         Description
-----                           --------        -------         -----------
Presentation Graphics           German          2.475 kbps
Presentation Graphics           English         2.594 kbps
Presentation Graphics           French          2.390 kbps
Presentation Graphics           Korean          2.252 kbps
Presentation Graphics           Japanese        2.239 kbps
FILES:
Name            Time In         Length          Size            Total Bitrate
----            -------         ------          ----            -------------
00003.M2TS      0:00:00.000     1:14:12.548     18,970,899,840  34,085
CHAPTERS:
Number          Time In         Length          Avg Video Rate  Max 1-Sec Rate  Max 1-Sec Time  Max 5-Sec Rate  Max 5-Sec Time  Max 10Sec Rate  Max 10Sec Time  Avg Frame Size  Max Frame Size  Max Frame Time
------          -------         ------          --------------  --------------  --------------  --------------  --------------  --------------  --------------  --------------  --------------  --------------
1               0:00:00.000     1:14:12.548     25,968 kbps     44,287 kbps     00:03:53.633    34,072 kbps     00:37:44.195    32,399 kbps     01:10:36.332    108,309 bytes   542,161 bytes   00:05:20.887
STREAM DIAGNOSTICS:
File            PID             Type            Codec           Language                Seconds                 Bitrate                 Bytes           Packets
----            ---             ----            -----           --------                --------------          --------------          -------------   -----
00003.M2TS      4113 (0x1011)   0x1B            AVC                                     4452.481                25,968                  14,453,006,450  78,628,372
00003.M2TS      4352 (0x1100)   0x86            DTS-HD MA       deu (German)            4452.481                4,008                   2,230,879,140   12,818,240
00003.M2TS      4353 (0x1101)   0x80            LPCM            deu (German)            4452.481                2,310                   1,285,899,328   7,124,096
00003.M2TS      4608 (0x1200)   0x90            PGS             deu (German)            4452.481                2                       1,377,394       7,894
00003.M2TS      4609 (0x1201)   0x90            PGS             eng (English)           4452.481                3                       1,443,726       8,245
00003.M2TS      4610 (0x1202)   0x90            PGS             fra (French)            4452.481                2                       1,330,165       7,640
00003.M2TS      4611 (0x1203)   0x90            PGS             kor (Korean)            4452.481                2                       1,253,382       7,220
00003.M2TS      4612 (0x1204)   0x90            PGS             jpn (Japanese)          4452.481                2                       1,246,343       7,182
QUICK SUMMARY:
Disc Title: Blomstedt Beethoven 9
Disc Size: 22,403,034,590 bytes
Protection: AACS
BD-Java: Yes
Playlist: 00003.MPLS
Size: 18,970,899,840 bytes
Length: 1:14:12.548
Total Bitrate: 34.09 Mbps
Video: MPEG-4 AVC Video / 25968 kbps / 1080i / 29.970 fps / 16:9 / High Profile 4.1
Audio: German / DTS-HD Master Audio / 5.1 / 48 kHz / 4008 kbps / 24-bit (DTS Core: 5.1 / 48 kHz / 1509 kbps / 24-bit)
Audio: German / LPCM Audio / 2.0 / 48 kHz / 2304 kbps / 24-bit
Subtitle: German / 2.475 kbps
Subtitle: English / 2.594 kbps
Subtitle: French / 2.390 kbps
Subtitle: Korean / 2.252 kbps
Subtitle: Japanese / 2.239 kbps
********************
PLAYLIST: 01002.MPLS
********************
Total   Video
Title                                                           Codec   Length  Movie Size      Disc Size       Bitrate Bitrate Main Audio Track                          Secondary Audio Track
-----                                                           ------  ------- --------------  --------------  ------- ------- ------------------                        ---------------------
01002.MPLS                                                      AVC     1:14:12 18,970,899,840  22,403,034,590  34.09   25.97   DTS-HD Master 5.1 4008Kbps (48kHz/24-bit) LPCM 2.0 2304Kbps (48kHz/24-bit)
DISC INFO:
Disc Title:     Blomstedt Beethoven 9
Disc Size:      22,403,034,590 bytes
Protection:     AACS
BD-Java:        Yes
BDInfo:         0.5.8
PLAYLIST REPORT:
Name:                   01002.MPLS
Length:                 1:14:12.548 (h:m:s.ms)
Size:                   18,970,899,840 bytes
Total Bitrate:          34.09 Mbps
VIDEO:
Codec                   Bitrate             Description
-----                   -------             -----------
MPEG-4 AVC Video        25968 kbps          1080i / 29.970 fps / 16:9 / High Profile 4.1
AUDIO:
Codec                           Language        Bitrate         Description
-----                           --------        -------         -----------
DTS-HD Master Audio             German          4008 kbps       5.1 / 48 kHz / 4008 kbps / 24-bit (DTS Core: 5.1 / 48 kHz / 1509 kbps / 24-bit)
LPCM Audio                      German          2304 kbps       2.0 / 48 kHz / 2304 kbps / 24-bit
SUBTITLES:
Codec                           Language        Bitrate         Description
-----                           --------        -------         -----------
Presentation Graphics           German          2.475 kbps
Presentation Graphics           English         2.594 kbps
Presentation Graphics           French          2.390 kbps
Presentation Graphics           Korean          2.252 kbps
Presentation Graphics           Japanese        2.239 kbps
FILES:
Name            Time In         Length          Size            Total Bitrate
----            -------         ------          ----            -------------
00003.M2TS      0:00:00.000     1:14:12.548     18,970,899,840  34,085
CHAPTERS:
Number          Time In         Length          Avg Video Rate  Max 1-Sec Rate  Max 1-Sec Time  Max 5-Sec Rate  Max 5-Sec Time  Max 10Sec Rate  Max 10Sec Time  Avg Frame Size  Max Frame Size  Max Frame Time
------          -------         ------          --------------  --------------  --------------  --------------  --------------  --------------  --------------  --------------  --------------  --------------
1               0:00:00.000     0:01:10.603     24,303 kbps     32,760 kbps     00:00:22.989    30,191 kbps     00:00:23.923    29,780 kbps     00:00:21.988    101,315 bytes   516,444 bytes   00:00:24.991
2               0:01:10.603     0:15:13.579     26,202 kbps     44,287 kbps     00:03:53.633    33,997 kbps     00:14:42.615    31,892 kbps     00:06:10.837    109,284 bytes   542,161 bytes   00:05:20.887
3               0:16:24.183     0:14:07.146     25,674 kbps     42,014 kbps     00:19:33.705    33,710 kbps     00:19:33.472    31,621 kbps     00:25:08.974    107,081 bytes   474,260 bytes   00:16:25.050
4               0:30:31.329     0:13:54.200     25,953 kbps     40,947 kbps     00:35:28.693    34,072 kbps     00:37:44.195    31,669 kbps     00:36:28.586    108,245 bytes   515,605 bytes   00:37:44.228
5               0:44:25.529     0:26:43.234     25,993 kbps     43,416 kbps     00:56:51.508    33,736 kbps     00:46:21.845    32,399 kbps     01:10:36.332    108,413 bytes   533,121 bytes   01:00:42.238
6               1:11:08.764     0:03:03.783     26,652 kbps     42,021 kbps     01:12:21.070    33,329 kbps     01:12:17.800    31,346 kbps     01:12:58.707    111,200 bytes   488,357 bytes   01:13:42.851
STREAM DIAGNOSTICS:
File            PID             Type            Codec           Language                Seconds                 Bitrate                 Bytes           Packets
----            ---             ----            -----           --------                --------------          --------------          -------------   -----
00003.M2TS      4113 (0x1011)   0x1B            AVC                                     4452.481                25,968                  14,453,006,450  78,628,372
00003.M2TS      4352 (0x1100)   0x86            DTS-HD MA       deu (German)            4452.481                4,008                   2,230,879,140   12,818,240
00003.M2TS      4353 (0x1101)   0x80            LPCM            deu (German)            4452.481                2,310                   1,285,899,328   7,124,096
00003.M2TS      4608 (0x1200)   0x90            PGS             deu (German)            4452.481                2                       1,377,394       7,894
00003.M2TS      4609 (0x1201)   0x90            PGS             eng (English)           4452.481                3                       1,443,726       8,245
00003.M2TS      4610 (0x1202)   0x90            PGS             fra (French)            4452.481                2                       1,330,165       7,640
00003.M2TS      4611 (0x1203)   0x90            PGS             kor (Korean)            4452.481                2                       1,253,382       7,220
00003.M2TS      4612 (0x1204)   0x90            PGS             jpn (Japanese)          4452.481                2                       1,246,343       7,182
QUICK SUMMARY:
Disc Title: Blomstedt Beethoven 9
Disc Size: 22,403,034,590 bytes
Protection: AACS
BD-Java: Yes
Playlist: 01002.MPLS
Size: 18,970,899,840 bytes
Length: 1:14:12.548
Total Bitrate: 34.09 Mbps
Video: MPEG-4 AVC Video / 25968 kbps / 1080i / 29.970 fps / 16:9 / High Profile 4.1
Audio: German / DTS-HD Master Audio / 5.1 / 48 kHz / 4008 kbps / 24-bit (DTS Core: 5.1 / 48 kHz / 1509 kbps / 24-bit)
Audio: German / LPCM Audio / 2.0 / 48 kHz / 2304 kbps / 24-bit
Subtitle: German / 2.475 kbps
Subtitle: English / 2.594 kbps
Subtitle: French / 2.390 kbps
Subtitle: Korean / 2.252 kbps
Subtitle: Japanese / 2.239 kbps
********************
PLAYLIST: 00004.MPLS
********************
Total   Video
Title                                                           Codec   Length  Movie Size      Disc Size       Bitrate Bitrate Main Audio Track                          Secondary Audio Track
-----                                                           ------  ------- --------------  --------------  ------- ------- ------------------                        ---------------------
00004.MPLS                                                      AVC     0:05:22 856,722,816     22,403,034,590  21.28   17.95   LPCM 2.0 2304Kbps (48kHz/24-bit)
DISC INFO:
Disc Title:     Blomstedt Beethoven 9
Disc Size:      22,403,034,590 bytes
Protection:     AACS
BD-Java:        Yes
BDInfo:         0.5.8
PLAYLIST REPORT:
Name:                   00004.MPLS
Length:                 0:05:22.055 (h:m:s.ms)
Size:                   856,722,816 bytes
Total Bitrate:          21.28 Mbps
VIDEO:
Codec                   Bitrate             Description
-----                   -------             -----------
MPEG-4 AVC Video        17946 kbps          1080i / 29.970 fps / 16:9 / High Profile 4.1
AUDIO:
Codec                           Language        Bitrate         Description
-----                           --------        -------         -----------
LPCM Audio                      Albanian        2304 kbps       2.0 / 48 kHz / 2304 kbps / 24-bit
FILES:
Name            Time In         Length          Size            Total Bitrate
----            -------         ------          ----            -------------
00004.M2TS      0:00:00.000     0:05:22.055     856,722,816     21,279
CHAPTERS:
Number          Time In         Length          Avg Video Rate  Max 1-Sec Rate  Max 1-Sec Time  Max 5-Sec Rate  Max 5-Sec Time  Max 10Sec Rate  Max 10Sec Time  Avg Frame Size  Max Frame Size  Max Frame Time
------          -------         ------          --------------  --------------  --------------  --------------  --------------  --------------  --------------  --------------  --------------  --------------
1               0:00:00.000     0:05:22.055     17,948 kbps     36,294 kbps     00:01:06.299    33,397 kbps     00:01:05.965    30,855 kbps     00:01:05.732    74,865 bytes    554,233 bytes   00:04:07.380
STREAM DIAGNOSTICS:
File            PID             Type            Codec           Language                Seconds                 Bitrate                 Bytes           Packets
----            ---             ----            -----           --------                --------------          --------------          -------------   -----
00004.M2TS      4113 (0x1011)   0x1B            AVC                                     321.988                 17,952                  722,527,334     3,932,502
00004.M2TS      4352 (0x1100)   0x80            LPCM            sqi (Albanian)          321.988                 2,311                   93,005,152      515,264
QUICK SUMMARY:
Disc Title: Blomstedt Beethoven 9
Disc Size: 22,403,034,590 bytes
Protection: AACS
BD-Java: Yes
Playlist: 00004.MPLS
Size: 856,722,816 bytes
Length: 0:05:22.055
Total Bitrate: 21.28 Mbps
Video: MPEG-4 AVC Video / 17946 kbps / 1080i / 29.970 fps / 16:9 / High Profile 4.1
Audio: Albanian / LPCM Audio / 2.0 / 48 kHz / 2304 kbps / 24-bit
********************
PLAYLIST: 01003.MPLS
********************
Total   Video
Title                                                           Codec   Length  Movie Size      Disc Size       Bitrate Bitrate Main Audio Track                          Secondary Audio Track
-----                                                           ------  ------- --------------  --------------  ------- ------- ------------------                        ---------------------
01003.MPLS                                                      AVC     0:05:22 856,722,816     22,403,034,590  21.28   17.95   LPCM 2.0 2304Kbps (48kHz/24-bit)
DISC INFO:
Disc Title:     Blomstedt Beethoven 9
Disc Size:      22,403,034,590 bytes
Protection:     AACS
BD-Java:        Yes
BDInfo:         0.5.8
PLAYLIST REPORT:
Name:                   01003.MPLS
Length:                 0:05:22.055 (h:m:s.ms)
Size:                   856,722,816 bytes
Total Bitrate:          21.28 Mbps
VIDEO:
Codec                   Bitrate             Description
-----                   -------             -----------
MPEG-4 AVC Video        17946 kbps          1080i / 29.970 fps / 16:9 / High Profile 4.1
AUDIO:
Codec                           Language        Bitrate         Description
-----                           --------        -------         -----------
LPCM Audio                      Albanian        2304 kbps       2.0 / 48 kHz / 2304 kbps / 24-bit
FILES:
Name            Time In         Length          Size            Total Bitrate
----            -------         ------          ----            -------------
00004.M2TS      0:00:00.000     0:05:22.055     856,722,816     21,279
CHAPTERS:
Number          Time In         Length          Avg Video Rate  Max 1-Sec Rate  Max 1-Sec Time  Max 5-Sec Rate  Max 5-Sec Time  Max 10Sec Rate  Max 10Sec Time  Avg Frame Size  Max Frame Size  Max Frame Time
------          -------         ------          --------------  --------------  --------------  --------------  --------------  --------------  --------------  --------------  --------------  --------------
1               0:00:00.000     0:05:22.055     17,948 kbps     36,294 kbps     00:01:06.299    33,397 kbps     00:01:05.965    30,855 kbps     00:01:05.732    74,865 bytes    554,233 bytes   00:04:07.380
STREAM DIAGNOSTICS:
File            PID             Type            Codec           Language                Seconds                 Bitrate                 Bytes           Packets
----            ---             ----            -----           --------                --------------          --------------          -------------   -----
00004.M2TS      4113 (0x1011)   0x1B            AVC                                     321.988                 17,952                  722,527,334     3,932,502
00004.M2TS      4352 (0x1100)   0x80            LPCM            sqi (Albanian)          321.988                 2,311                   93,005,152      515,264
QUICK SUMMARY:
Disc Title: Blomstedt Beethoven 9
Disc Size: 22,403,034,590 bytes
Protection: AACS
BD-Java: Yes
Playlist: 01003.MPLS
Size: 856,722,816 bytes
Length: 0:05:22.055
Total Bitrate: 21.28 Mbps
Video: MPEG-4 AVC Video / 17946 kbps / 1080i / 29.970 fps / 16:9 / High Profile 4.1
Audio: Albanian / LPCM Audio / 2.0 / 48 kHz / 2304 kbps / 24-bit
********************
PLAYLIST: 00005.MPLS
********************
Total   Video
Title                                                           Codec   Length  Movie Size      Disc Size       Bitrate Bitrate Main Audio Track                          Secondary Audio Track
-----                                                           ------  ------- --------------  --------------  ------- ------- ------------------                        ---------------------
00005.MPLS                                                      AVC     0:04:32 725,216,640     22,403,034,590  21.30   17.96   LPCM 2.0 2304Kbps (48kHz/24-bit)
DISC INFO:
Disc Title:     Blomstedt Beethoven 9
Disc Size:      22,403,034,590 bytes
Protection:     AACS
BD-Java:        Yes
BDInfo:         0.5.8
PLAYLIST REPORT:
Name:                   00005.MPLS
Length:                 0:04:32.438 (h:m:s.ms)
Size:                   725,216,640 bytes
Total Bitrate:          21.30 Mbps
VIDEO:
Codec                   Bitrate             Description
-----                   -------             -----------
MPEG-4 AVC Video        17959 kbps          1080i / 29.970 fps / 16:9 / High Profile 4.1
AUDIO:
Codec                           Language        Bitrate         Description
-----                           --------        -------         -----------
LPCM Audio                      Undetermined    2304 kbps       2.0 / 48 kHz / 2304 kbps / 24-bit
FILES:
Name            Time In         Length          Size            Total Bitrate
----            -------         ------          ----            -------------
00005.M2TS      0:00:00.000     0:04:32.438     725,216,640     21,293
CHAPTERS:
Number          Time In         Length          Avg Video Rate  Max 1-Sec Rate  Max 1-Sec Time  Max 5-Sec Rate  Max 5-Sec Time  Max 10Sec Rate  Max 10Sec Time  Avg Frame Size  Max Frame Size  Max Frame Time
------          -------         ------          --------------  --------------  --------------  --------------  --------------  --------------  --------------  --------------  --------------  --------------
1               0:00:00.000     0:04:32.438     17,962 kbps     40,756 kbps     00:01:27.454    32,468 kbps     00:03:59.772    28,829 kbps     00:02:28.715    74,942 bytes    526,479 bytes   00:00:15.315
STREAM DIAGNOSTICS:
File            PID             Type            Codec           Language                Seconds                 Bitrate                 Bytes           Packets
----            ---             ----            -----           --------                --------------          --------------          -------------   -----
00005.M2TS      4113 (0x1011)   0x1B            AVC                                     272.372                 17,966                  611,680,265     3,329,129
00005.M2TS      4352 (0x1100)   0x80            LPCM            und (Undetermined)      272.372                 2,311                   78,680,672      435,904
QUICK SUMMARY:
Disc Title: Blomstedt Beethoven 9
Disc Size: 22,403,034,590 bytes
Protection: AACS
BD-Java: Yes
Playlist: 00005.MPLS
Size: 725,216,640 bytes
Length: 0:04:32.438
Total Bitrate: 21.30 Mbps
Video: MPEG-4 AVC Video / 17959 kbps / 1080i / 29.970 fps / 16:9 / High Profile 4.1
Audio: Undetermined / LPCM Audio / 2.0 / 48 kHz / 2304 kbps / 24-bit
********************
PLAYLIST: 01004.MPLS
********************
Total   Video
Title                                                           Codec   Length  Movie Size      Disc Size       Bitrate Bitrate Main Audio Track                          Secondary Audio Track
-----                                                           ------  ------- --------------  --------------  ------- ------- ------------------                        ---------------------
01004.MPLS                                                      AVC     0:04:32 725,216,640     22,403,034,590  21.30   17.96   LPCM 2.0 2304Kbps (48kHz/24-bit)
DISC INFO:
Disc Title:     Blomstedt Beethoven 9
Disc Size:      22,403,034,590 bytes
Protection:     AACS
BD-Java:        Yes
BDInfo:         0.5.8
PLAYLIST REPORT:
Name:                   01004.MPLS
Length:                 0:04:32.438 (h:m:s.ms)
Size:                   725,216,640 bytes
Total Bitrate:          21.30 Mbps
VIDEO:
Codec                   Bitrate             Description
-----                   -------             -----------
MPEG-4 AVC Video        17959 kbps          1080i / 29.970 fps / 16:9 / High Profile 4.1
AUDIO:
Codec                           Language        Bitrate         Description
-----                           --------        -------         -----------
LPCM Audio                      Undetermined    2304 kbps       2.0 / 48 kHz / 2304 kbps / 24-bit
FILES:
Name            Time In         Length          Size            Total Bitrate
----            -------         ------          ----            -------------
00005.M2TS      0:00:00.000     0:04:32.438     725,216,640     21,293
CHAPTERS:
Number          Time In         Length          Avg Video Rate  Max 1-Sec Rate  Max 1-Sec Time  Max 5-Sec Rate  Max 5-Sec Time  Max 10Sec Rate  Max 10Sec Time  Avg Frame Size  Max Frame Size  Max Frame Time
------          -------         ------          --------------  --------------  --------------  --------------  --------------  --------------  --------------  --------------  --------------  --------------
1               0:00:00.000     0:04:32.438     17,962 kbps     40,756 kbps     00:01:27.454    32,468 kbps     00:03:59.772    28,829 kbps     00:02:28.715    74,942 bytes    526,479 bytes   00:00:15.315
STREAM DIAGNOSTICS:
File            PID             Type            Codec           Language                Seconds                 Bitrate                 Bytes           Packets
----            ---             ----            -----           --------                --------------          --------------          -------------   -----
00005.M2TS      4113 (0x1011)   0x1B            AVC                                     272.372                 17,966                  611,680,265     3,329,129
00005.M2TS      4352 (0x1100)   0x80            LPCM            und (Undetermined)      272.372                 2,311                   78,680,672      435,904
QUICK SUMMARY:
Disc Title: Blomstedt Beethoven 9
Disc Size: 22,403,034,590 bytes
Protection: AACS
BD-Java: Yes
Playlist: 01004.MPLS
Size: 725,216,640 bytes
Length: 0:04:32.438
Total Bitrate: 21.30 Mbps
Video: MPEG-4 AVC Video / 17959 kbps / 1080i / 29.970 fps / 16:9 / High Profile 4.1
Audio: Undetermined / LPCM Audio / 2.0 / 48 kHz / 2304 kbps / 24-bit
********************
PLAYLIST: 00006.MPLS
********************
Total   Video
Title                                                           Codec   Length  Movie Size      Disc Size       Bitrate Bitrate Main Audio Track                          Secondary Audio Track
-----                                                           ------  ------- --------------  --------------  ------- ------- ------------------                        ---------------------
00006.MPLS                                                      AVC     0:04:24 704,947,584     22,403,034,590  21.29   17.95   LPCM 2.0 2304Kbps (48kHz/24-bit)
DISC INFO:
Disc Title:     Blomstedt Beethoven 9
Disc Size:      22,403,034,590 bytes
Protection:     AACS
BD-Java:        Yes
BDInfo:         0.5.8
PLAYLIST REPORT:
Name:                   00006.MPLS
Length:                 0:04:24.931 (h:m:s.ms)
Size:                   704,947,584 bytes
Total Bitrate:          21.29 Mbps
VIDEO:
Codec                   Bitrate             Description
-----                   -------             -----------
MPEG-4 AVC Video        17950 kbps          1080i / 29.970 fps / 16:9 / High Profile 4.1
AUDIO:
Codec                           Language        Bitrate         Description
-----                           --------        -------         -----------
LPCM Audio                      Undetermined    2304 kbps       2.0 / 48 kHz / 2304 kbps / 24-bit
FILES:
Name            Time In         Length          Size            Total Bitrate
----            -------         ------          ----            -------------
00006.M2TS      0:00:00.000     0:04:24.931     704,947,584     21,284
CHAPTERS:
Number          Time In         Length          Avg Video Rate  Max 1-Sec Rate  Max 1-Sec Time  Max 5-Sec Rate  Max 5-Sec Time  Max 10Sec Rate  Max 10Sec Time  Avg Frame Size  Max Frame Size  Max Frame Time
------          -------         ------          --------------  --------------  --------------  --------------  --------------  --------------  --------------  --------------  --------------  --------------
1               0:00:00.000     0:04:24.931     17,952 kbps     49,317 kbps     00:00:08.241    31,427 kbps     00:00:08.241    28,947 kbps     00:00:08.241    74,894 bytes    495,672 bytes   00:00:08.475
STREAM DIAGNOSTICS:
File            PID             Type            Codec           Language                Seconds                 Bitrate                 Bytes           Packets
----            ---             ----            -----           --------                --------------          --------------          -------------   -----
00006.M2TS      4113 (0x1011)   0x1B            AVC                                     264.865                 17,957                  594,506,477     3,235,676
00006.M2TS      4352 (0x1100)   0x80            LPCM            und (Undetermined)      264.865                 2,312                   76,555,104      424,128
QUICK SUMMARY:
Disc Title: Blomstedt Beethoven 9
Disc Size: 22,403,034,590 bytes
Protection: AACS
BD-Java: Yes
Playlist: 00006.MPLS
Size: 704,947,584 bytes
Length: 0:04:24.931
Total Bitrate: 21.29 Mbps
Video: MPEG-4 AVC Video / 17950 kbps / 1080i / 29.970 fps / 16:9 / High Profile 4.1
Audio: Undetermined / LPCM Audio / 2.0 / 48 kHz / 2304 kbps / 24-bit
********************
PLAYLIST: 01005.MPLS
********************
Total   Video
Title                                                           Codec   Length  Movie Size      Disc Size       Bitrate Bitrate Main Audio Track                          Secondary Audio Track
-----                                                           ------  ------- --------------  --------------  ------- ------- ------------------                        ---------------------
01005.MPLS                                                      AVC     0:04:24 704,947,584     22,403,034,590  21.29   17.95   LPCM 2.0 2304Kbps (48kHz/24-bit)
DISC INFO:
Disc Title:     Blomstedt Beethoven 9
Disc Size:      22,403,034,590 bytes
Protection:     AACS
BD-Java:        Yes
BDInfo:         0.5.8
PLAYLIST REPORT:
Name:                   01005.MPLS
Length:                 0:04:24.931 (h:m:s.ms)
Size:                   704,947,584 bytes
Total Bitrate:          21.29 Mbps
VIDEO:
Codec                   Bitrate             Description
-----                   -------             -----------
MPEG-4 AVC Video        17950 kbps          1080i / 29.970 fps / 16:9 / High Profile 4.1
AUDIO:
Codec                           Language        Bitrate         Description
-----                           --------        -------         -----------
LPCM Audio                      Undetermined    2304 kbps       2.0 / 48 kHz / 2304 kbps / 24-bit
FILES:
Name            Time In         Length          Size            Total Bitrate
----            -------         ------          ----            -------------
00006.M2TS      0:00:00.000     0:04:24.931     704,947,584     21,284
CHAPTERS:
Number          Time In         Length          Avg Video Rate  Max 1-Sec Rate  Max 1-Sec Time  Max 5-Sec Rate  Max 5-Sec Time  Max 10Sec Rate  Max 10Sec Time  Avg Frame Size  Max Frame Size  Max Frame Time
------          -------         ------          --------------  --------------  --------------  --------------  --------------  --------------  --------------  --------------  --------------  --------------
1               0:00:00.000     0:04:24.931     17,952 kbps     49,317 kbps     00:00:08.241    31,427 kbps     00:00:08.241    28,947 kbps     00:00:08.241    74,894 bytes    495,672 bytes   00:00:08.475
STREAM DIAGNOSTICS:
File            PID             Type            Codec           Language                Seconds                 Bitrate                 Bytes           Packets
----            ---             ----            -----           --------                --------------          --------------          -------------   -----
00006.M2TS      4113 (0x1011)   0x1B            AVC                                     264.865                 17,957                  594,506,477     3,235,676
00006.M2TS      4352 (0x1100)   0x80            LPCM            und (Undetermined)      264.865                 2,312                   76,555,104      424,128
QUICK SUMMARY:
Disc Title: Blomstedt Beethoven 9
Disc Size: 22,403,034,590 bytes
Protection: AACS
BD-Java: Yes
Playlist: 01005.MPLS
Size: 704,947,584 bytes
Length: 0:04:24.931
Total Bitrate: 21.29 Mbps
Video: MPEG-4 AVC Video / 17950 kbps / 1080i / 29.970 fps / 16:9 / High Profile 4.1
Audio: Undetermined / LPCM Audio / 2.0 / 48 kHz / 2304 kbps / 24-bit
********************
PLAYLIST: 00007.MPLS
********************
Total   Video
Title                                                           Codec   Length  Movie Size      Disc Size       Bitrate Bitrate Main Audio Track                          Secondary Audio Track
-----                                                           ------  ------- --------------  --------------  ------- ------- ------------------                        ---------------------
00007.MPLS                                                      AVC     0:04:20 694,656,384     22,403,034,590  21.33   17.99   LPCM 2.0 2304Kbps (48kHz/24-bit)
DISC INFO:
Disc Title:     Blomstedt Beethoven 9
Disc Size:      22,403,034,590 bytes
Protection:     AACS
BD-Java:        Yes
BDInfo:         0.5.8
PLAYLIST REPORT:
Name:                   00007.MPLS
Length:                 0:04:20.493 (h:m:s.ms)
Size:                   694,656,384 bytes
Total Bitrate:          21.33 Mbps
VIDEO:
Codec                   Bitrate             Description
-----                   -------             -----------
MPEG-4 AVC Video        17995 kbps          1080i / 29.970 fps / 16:9 / High Profile 4.1
AUDIO:
Codec                           Language        Bitrate         Description
-----                           --------        -------         -----------
LPCM Audio                      Undetermined    2304 kbps       2.0 / 48 kHz / 2304 kbps / 24-bit
FILES:
Name            Time In         Length          Size            Total Bitrate
----            -------         ------          ----            -------------
00007.M2TS      0:00:00.000     0:04:20.493     694,656,384     21,331
CHAPTERS:
Number          Time In         Length          Avg Video Rate  Max 1-Sec Rate  Max 1-Sec Time  Max 5-Sec Rate  Max 5-Sec Time  Max 10Sec Rate  Max 10Sec Time  Avg Frame Size  Max Frame Size  Max Frame Time
------          -------         ------          --------------  --------------  --------------  --------------  --------------  --------------  --------------  --------------  --------------  --------------
1               0:00:00.000     0:04:20.493     17,997 kbps     36,133 kbps     00:00:08.141    27,686 kbps     00:00:08.141    25,564 kbps     00:02:25.678    75,081 bytes    469,790 bytes   00:03:26.973
STREAM DIAGNOSTICS:
File            PID             Type            Codec           Language                Seconds                 Bitrate                 Bytes           Packets
----            ---             ----            -----           --------                --------------          --------------          -------------   -----
00007.M2TS      4113 (0x1011)   0x1B            AVC                                     260.427                 18,001                  586,008,099     3,189,429
00007.M2TS      4352 (0x1100)   0x80            LPCM            und (Undetermined)      260.427                 2,312                   75,261,280      416,960
QUICK SUMMARY:
Disc Title: Blomstedt Beethoven 9
Disc Size: 22,403,034,590 bytes
Protection: AACS
BD-Java: Yes
Playlist: 00007.MPLS
Size: 694,656,384 bytes
Length: 0:04:20.493
Total Bitrate: 21.33 Mbps
Video: MPEG-4 AVC Video / 17995 kbps / 1080i / 29.970 fps / 16:9 / High Profile 4.1
Audio: Undetermined / LPCM Audio / 2.0 / 48 kHz / 2304 kbps / 24-bit
********************
PLAYLIST: 01006.MPLS
********************
Total   Video
Title                                                           Codec   Length  Movie Size      Disc Size       Bitrate Bitrate Main Audio Track                          Secondary Audio Track
-----                                                           ------  ------- --------------  --------------  ------- ------- ------------------                        ---------------------
01006.MPLS                                                      AVC     0:04:20 694,656,384     22,403,034,590  21.33   17.99   LPCM 2.0 2304Kbps (48kHz/24-bit)
DISC INFO:
Disc Title:     Blomstedt Beethoven 9
Disc Size:      22,403,034,590 bytes
Protection:     AACS
BD-Java:        Yes
BDInfo:         0.5.8
PLAYLIST REPORT:
Name:                   01006.MPLS
Length:                 0:04:20.493 (h:m:s.ms)
Size:                   694,656,384 bytes
Total Bitrate:          21.33 Mbps
VIDEO:
Codec                   Bitrate             Description
-----                   -------             -----------
MPEG-4 AVC Video        17995 kbps          1080i / 29.970 fps / 16:9 / High Profile 4.1
AUDIO:
Codec                           Language        Bitrate         Description
-----                           --------        -------         -----------
LPCM Audio                      Undetermined    2304 kbps       2.0 / 48 kHz / 2304 kbps / 24-bit
FILES:
Name            Time In         Length          Size            Total Bitrate
----            -------         ------          ----            -------------
00007.M2TS      0:00:00.000     0:04:20.493     694,656,384     21,331
CHAPTERS:
Number          Time In         Length          Avg Video Rate  Max 1-Sec Rate  Max 1-Sec Time  Max 5-Sec Rate  Max 5-Sec Time  Max 10Sec Rate  Max 10Sec Time  Avg Frame Size  Max Frame Size  Max Frame Time
------          -------         ------          --------------  --------------  --------------  --------------  --------------  --------------  --------------  --------------  --------------  --------------
1               0:00:00.000     0:04:20.493     17,997 kbps     36,133 kbps     00:00:08.141    27,686 kbps     00:00:08.141    25,564 kbps     00:02:25.678    75,081 bytes    469,790 bytes   00:03:26.973
STREAM DIAGNOSTICS:
File            PID             Type            Codec           Language                Seconds                 Bitrate                 Bytes           Packets
----            ---             ----            -----           --------                --------------          --------------          -------------   -----
00007.M2TS      4113 (0x1011)   0x1B            AVC                                     260.427                 18,001                  586,008,099     3,189,429
00007.M2TS      4352 (0x1100)   0x80            LPCM            und (Undetermined)      260.427                 2,312                   75,261,280      416,960
QUICK SUMMARY:
Disc Title: Blomstedt Beethoven 9
Disc Size: 22,403,034,590 bytes
Protection: AACS
BD-Java: Yes
Playlist: 01006.MPLS
Size: 694,656,384 bytes
Length: 0:04:20.493
Total Bitrate: 21.33 Mbps
Video: MPEG-4 AVC Video / 17995 kbps / 1080i / 29.970 fps / 16:9 / High Profile 4.1
Audio: Undetermined / LPCM Audio / 2.0 / 48 kHz / 2304 kbps / 24-bit
********************
PLAYLIST: 00002.MPLS
********************
Total   Video
Title                                                           Codec   Length  Movie Size      Disc Size       Bitrate Bitrate Main Audio Track                          Secondary Audio Track
-----                                                           ------  ------- --------------  --------------  ------- ------- ------------------                        ---------------------
00002.MPLS                                                      AVC     0:01:52 372,368,256     22,403,034,590  26.47   22.91   LPCM 2.0 2304Kbps (48kHz/24-bit)
DISC INFO:
Disc Title:     Blomstedt Beethoven 9
Disc Size:      22,403,034,590 bytes
Protection:     AACS
BD-Java:        Yes
BDInfo:         0.5.8
PLAYLIST REPORT:
Name:                   00002.MPLS
Length:                 0:01:52.545 (h:m:s.ms)
Size:                   372,368,256 bytes
Total Bitrate:          26.47 Mbps
VIDEO:
Codec                   Bitrate             Description
-----                   -------             -----------
MPEG-4 AVC Video        22912 kbps          1080i / 29.970 fps / 16:9 / High Profile 4.1
AUDIO:
Codec                           Language        Bitrate         Description
-----                           --------        -------         -----------
LPCM Audio                      English         2304 kbps       2.0 / 48 kHz / 2304 kbps / 24-bit
FILES:
Name            Time In         Length          Size            Total Bitrate
----            -------         ------          ----            -------------
00002.M2TS      0:00:00.000     0:01:52.545     372,368,256     26,461
CHAPTERS:
Number          Time In         Length          Avg Video Rate  Max 1-Sec Rate  Max 1-Sec Time  Max 5-Sec Rate  Max 5-Sec Time  Max 10Sec Rate  Max 10Sec Time  Avg Frame Size  Max Frame Size  Max Frame Time
------          -------         ------          --------------  --------------  --------------  --------------  --------------  --------------  --------------  --------------  --------------  --------------
1               0:00:00.000     0:01:52.545     22,919 kbps     33,523 kbps     00:00:44.677    29,585 kbps     00:00:43.710    28,671 kbps     00:00:40.807    95,618 bytes    458,062 bytes   00:00:40.840
STREAM DIAGNOSTICS:
File            PID             Type            Codec           Language                Seconds                 Bitrate                 Bytes           Packets
----            ---             ----            -----           --------                --------------          --------------          -------------   -----
00002.M2TS      4113 (0x1011)   0x1B            AVC                                     112.446                 22,943                  322,481,506     1,754,637
00002.M2TS      4352 (0x1100)   0x80            LPCM            eng (English)           112.446                 2,313                   32,504,440      180,080
QUICK SUMMARY:
Disc Title: Blomstedt Beethoven 9
Disc Size: 22,403,034,590 bytes
Protection: AACS
BD-Java: Yes
Playlist: 00002.MPLS
Size: 372,368,256 bytes
Length: 0:01:52.545
Total Bitrate: 26.47 Mbps
Video: MPEG-4 AVC Video / 22912 kbps / 1080i / 29.970 fps / 16:9 / High Profile 4.1
Audio: English / LPCM Audio / 2.0 / 48 kHz / 2304 kbps / 24-bit
********************
PLAYLIST: 01000.MPLS
********************
Total   Video
Title                                                           Codec   Length  Movie Size      Disc Size       Bitrate Bitrate Main Audio Track                          Secondary Audio Track
-----                                                           ------  ------- --------------  --------------  ------- ------- ------------------                        ---------------------
01000.MPLS                                                      AVC     0:00:30 65,932,416      22,403,034,590  17.41   14.21   LPCM 2.0 2304Kbps (48kHz/24-bit)
DISC INFO:
Disc Title:     Blomstedt Beethoven 9
Disc Size:      22,403,034,590 bytes
Protection:     AACS
BD-Java:        Yes
BDInfo:         0.5.8
PLAYLIST REPORT:
Name:                   01000.MPLS
Length:                 0:00:30.296 (h:m:s.ms)
Size:                   65,932,416 bytes
Total Bitrate:          17.41 Mbps
VIDEO:
Codec                   Bitrate             Description
-----                   -------             -----------
MPEG-4 AVC Video        14209 kbps          1080i / 29.970 fps / 16:9 / High Profile 4.1
AUDIO:
Codec                           Language        Bitrate         Description
-----                           --------        -------         -----------
LPCM Audio                      English         2304 kbps       2.0 / 48 kHz / 2304 kbps / 24-bit
FILES:
Name            Time In         Length          Size            Total Bitrate
----            -------         ------          ----            -------------
00000.M2TS      0:00:00.000     0:00:13.046     6,276,480       3,839
00001.M2TS      0:00:13.046     0:00:17.250     59,655,936      27,612
CHAPTERS:
Number          Time In         Length          Avg Video Rate  Max 1-Sec Rate  Max 1-Sec Time  Max 5-Sec Rate  Max 5-Sec Time  Max 10Sec Rate  Max 10Sec Time  Avg Frame Size  Max Frame Size  Max Frame Time
------          -------         ------          --------------  --------------  --------------  --------------  --------------  --------------  --------------  --------------  --------------  --------------
1               0:00:00.000     0:00:13.046     1,251 kbps      4,901 kbps      00:00:00.967    1,626 kbps      00:00:00.967    1,217 kbps      00:00:00.967    5,230 bytes     96,438 bytes    00:00:01.968
2               0:00:13.046     0:00:17.250     24,064 kbps     43,320 kbps     00:00:15.582    35,652 kbps     00:00:15.582    34,134 kbps     00:00:14.748    100,758 bytes   560,983 bytes   00:00:19.686
STREAM DIAGNOSTICS:
File            PID             Type            Codec           Language                Seconds                 Bitrate                 Bytes           Packets
----            ---             ----            -----           --------                --------------          --------------          -------------   -----
00000.M2TS      4113 (0x1011)   0x1B            AVC                                     12.980                  1,258                   2,040,859       11,203
00000.M2TS      4352 (0x1100)   0x80            LPCM            eng (English)           12.980                  2,323                   3,768,840       20,880
00001.M2TS      4113 (0x1011)   0x1B            AVC                                     17.184                  24,186                  51,951,095      282,648
00001.M2TS      4352 (0x1100)   0x80            LPCM            eng (English)           17.184                  2,320                   4,983,244       27,608
QUICK SUMMARY:
Disc Title: Blomstedt Beethoven 9
Disc Size: 22,403,034,590 bytes
Protection: AACS
BD-Java: Yes
Playlist: 01000.MPLS
Size: 65,932,416 bytes
Length: 0:00:30.296
Total Bitrate: 17.41 Mbps
Video: MPEG-4 AVC Video / 14209 kbps / 1080i / 29.970 fps / 16:9 / High Profile 4.1
Audio: English / LPCM Audio / 2.0 / 48 kHz / 2304 kbps / 24-bit
********************
PLAYLIST: 01007.MPLS
********************
Total   Video
Title                                                           Codec   Length  Movie Size      Disc Size       Bitrate Bitrate Main Audio Track                          Secondary Audio Track
-----                                                           ------  ------- --------------  --------------  ------- ------- ------------------                        ---------------------
01007.MPLS                                                      AVC     0:00:30 65,932,416      22,403,034,590  17.41   14.21   LPCM 2.0 2304Kbps (48kHz/24-bit)
DISC INFO:
Disc Title:     Blomstedt Beethoven 9
Disc Size:      22,403,034,590 bytes
Protection:     AACS
BD-Java:        Yes
BDInfo:         0.5.8
PLAYLIST REPORT:
Name:                   01007.MPLS
Length:                 0:00:30.296 (h:m:s.ms)
Size:                   65,932,416 bytes
Total Bitrate:          17.41 Mbps
VIDEO:
Codec                   Bitrate             Description
-----                   -------             -----------
MPEG-4 AVC Video        14209 kbps          1080i / 29.970 fps / 16:9 / High Profile 4.1
AUDIO:
Codec                           Language        Bitrate         Description
-----                           --------        -------         -----------
LPCM Audio                      English         2304 kbps       2.0 / 48 kHz / 2304 kbps / 24-bit
FILES:
Name            Time In         Length          Size            Total Bitrate
----            -------         ------          ----            -------------
00000.M2TS      0:00:00.000     0:00:13.046     6,276,480       3,839
00001.M2TS      0:00:13.046     0:00:17.250     59,655,936      27,612
CHAPTERS:
Number          Time In         Length          Avg Video Rate  Max 1-Sec Rate  Max 1-Sec Time  Max 5-Sec Rate  Max 5-Sec Time  Max 10Sec Rate  Max 10Sec Time  Avg Frame Size  Max Frame Size  Max Frame Time
------          -------         ------          --------------  --------------  --------------  --------------  --------------  --------------  --------------  --------------  --------------  --------------
1               0:00:00.000     0:00:13.046     1,251 kbps      4,901 kbps      00:00:00.967    1,626 kbps      00:00:00.967    1,217 kbps      00:00:00.967    5,230 bytes     96,438 bytes    00:00:01.968
2               0:00:13.046     0:00:17.250     24,064 kbps     43,320 kbps     00:00:15.582    35,652 kbps     00:00:15.582    34,134 kbps     00:00:14.748    100,758 bytes   560,983 bytes   00:00:19.686
STREAM DIAGNOSTICS:
File            PID             Type            Codec           Language                Seconds                 Bitrate                 Bytes           Packets
----            ---             ----            -----           --------                --------------          --------------          -------------   -----
00000.M2TS      4113 (0x1011)   0x1B            AVC                                     12.980                  1,258                   2,040,859       11,203
00000.M2TS      4352 (0x1100)   0x80            LPCM            eng (English)           12.980                  2,323                   3,768,840       20,880
00001.M2TS      4113 (0x1011)   0x1B            AVC                                     17.184                  24,186                  51,951,095      282,648
00001.M2TS      4352 (0x1100)   0x80            LPCM            eng (English)           17.184                  2,320                   4,983,244       27,608
QUICK SUMMARY:
Disc Title: Blomstedt Beethoven 9
Disc Size: 22,403,034,590 bytes
Protection: AACS
BD-Java: Yes
Playlist: 01007.MPLS
Size: 65,932,416 bytes
Length: 0:00:30.296
Total Bitrate: 17.41 Mbps
Video: MPEG-4 AVC Video / 14209 kbps / 1080i / 29.970 fps / 16:9 / High Profile 4.1
Audio: English / LPCM Audio / 2.0 / 48 kHz / 2304 kbps / 24-bit

Скриншоты







Ви не можете починати теми
Ви не можете відповідати на повідомлення
Ви не можете редагувати свої повідомлення
Ви не можете видаляти свої повідомлення
Ви не можете голосувати в опитуваннях
Ви не можете прикріплювати файли до повідомлень
Ви можете скачувати файли