Новогодний концерт Венского филармонического оркестра 2018 / Neujahrskonzert der Wiener Philarmoniker 2018 (Riccardo Muti, Wiener Philharmoniker) [2018, Classical, HDTV 1080i feed]


Статистика роздачі [Оновити пиров]
Розмір:  33,66 GB   |    Зареєстрований:  1 рік   |    Скачано:  0 раз

Повного джерела не було: Ніколи

by Козак ®
09-Бер-2018 20:18


Новогодний концерт Венского филармонического оркестра 2018 / Neujahrskonzert der Wiener Philarmoniker 2018 (Riccardo Muti, Wiener Philharmoniker) [2018, Classical, HDTV 1080i feed]

Johann Strauss Jr., Josef Strauss, Johann Strauss sen, Franz von Suppé, Alphons Czibulka - Новогодний концерт Венского филармонического оркестра 2018 / Neujahrskonzert der Wiener Philarmoniker 2018
Год выпуска: 2018
Жанр: Classical
Продолжительность: 02:49:11
Перевод: нет
Дирижер : Riccardo Muti
Исполнители: Wiener Philharmoniker
Треклист:
Часть 1
Johann Strauss, Jr.
Entrance March from the Operetta "The Gypsy Baron"
Josef Strauss
Wiener Fresken (Viennese Frescos), Waltz, op. 249
Johann Strauss, Jr.
Brautschau (Bride Shopping), Polka, op. 417
Leichtes Blut (Light of Heart), Fast Polka, op. 319

Johann Strauss, sen
.
Marienwalzer (Maria Waltz), op. 212
William Tell Galop, op. 29b
Intermission Feature - Wiener Moderne 1918-2018 - музыкальный фильм
Часть 2
Franz von Suppé
Overture to "Boccaccio"
Johann Strauss, Jr.
Myrthenblüten (Myrtle Blossoms), Waltz, op. 395
Alphons Czibulka
Stephanie Gavotte, op. 312
Johann Strauss, Jr.
Freikugeln (Magic Bullets), Fast Polka, op. 326
Tales from the Vienna Woods, Waltz, op. 325
Fest-Marsch (Festival March), op. 452
Stadt und Land (Town and Country), Polka Mazurka, op. 322
Un ballo in maschera (Masked Ball), Quadrille, op. 272
Rosen aus dem Süden (Roses from the South), Waltz, op. 388
Josef Strauss
Eingesendet (Letters to the Editor), Fast Polka, op. 240
The zither solo in the waltz "Tales from the Vienna Woods" is performed by Barbara Laister-Ebner.
Описание: Новогодний концерт в Вене (нем. Das Neujahrskonzert der Wiener Philharmoniker) — традиционный ежегодный концерт Венского филармонического оркестра 1 января в столице Австрии. Концерты, которые Венский филармонический оркестр дает ежегодно, по праву считаются одним из крупнейших мировых музыкальных событий года. К этому концерту знаменитый симфонический оркестр долго готовится: приглашает крупнейших дирижеров, подбирает репертуар, в который по традиции неизменно включаются произведения знаменитых венских композиторов из семьи Штраусов. Первый Новогодний концерт в здании Венского общества друзей музыки состоялся 31 декабря 1939 года, однако свое официальное название «Новогодний концерт» он получил лишь в 1946 году.
Качество видео: HDTV 1080i feed
Формат/Контейнер: MKV
Видео кодек: H.264
Аудио кодек: DTS, MP2
Видео: AVC, 1920x1080 (16:9), 25.000 fps, 24.8 Mbps
Аудио#1: DTS MA / Core, 48.0 KHz, 5 ch, 1 673 Kbps / 755 Kbps, German
Аудио#2: DTS MA / Core, 48.0 KHz, 5 ch, 1 671 Kbps / 755 Kbps
Аудио#3: MP2, 48.0 KHz, 2 ch, 384 Kbps, German
Аудио#4: MP2, 48.0 KHz, 2 ch, 384 Kbps

MediaInfo

GeneralUnique ID                                : 210045287891235813257704743569490085962 (0x9E05403F17B57C93967CAFE7F5B6884A)Complete name                            : G:\Vienna Philharmonic Orchestra - New Year's Concert 2018 with Riccardo Muti - MPEG4+DTS HD-MA5.0.mkvFormat                                   : MatroskaFormat version                           : Version 2File size                                : 33.7 GiBDuration                                 : 2 h 49 minOverall bit rate                         : 28.5 Mb/sEncoded date                             : UTC 2018-01-07 22:37:59Writing application                      : mkvmerge v9.8.0 ('Kuglblids') 64bitWriting library                          : libebml v1.3.4 + libmatroska v1.4.5
VideoID : 1Format : AVCFormat/Info : Advanced Video CodecFormat profile : High 4:2:[email protected] settings : CABAC / 3 Ref FramesFormat settings, CABAC : YesFormat settings, RefFrames : 3 framesFormat settings, GOP : M=4, N=15Codec ID : V_MPEG4/ISO/AVCDuration : 2 h 49 minBit rate mode : ConstantBit rate : 24.8 Mb/sWidth : 1 920 pixelsHeight : 1 080 pixelsDisplay aspect ratio : 16:9Frame rate mode : VariableFrame rate : 37.463 FPSOriginal frame rate : 25.000 FPSColor space : YUVChroma subsampling : 4:2:2Bit depth : 8 bitsScan type : MBAFFScan type, store method : Interleaved fieldsScan order : Top Field FirstBits/(Pixel*Frame) : 0.319Stream size : 28.8 GiB (86%)Default : YesForced : NoColor range : LimitedColor primaries : BT.709Transfer characteristics : BT.709Matrix coefficients : BT.709
Audio #1ID : 2Format : DTSFormat/Info : Digital Theater SystemsFormat profile : MA / CoreCodec ID : A_DTSDuration : 2 h 49 minBit rate mode : Variable / ConstantBit rate : 1 673 kb/s / 768 kb/sChannel(s) : 5 channelsChannel positions : Front: L C R, Side: L RSampling rate : 48.0 kHzFrame rate : 93.750 FPS (512 SPF)Bit depth : 16 bitsCompression mode : Lossless / LossyDelay relative to video : -336 msStream size : 1.98 GiB (6%)Default : YesForced : No
Audio #2ID : 3Format : DTSFormat/Info : Digital Theater SystemsFormat profile : MA / CoreCodec ID : A_DTSDuration : 2 h 49 minBit rate mode : Variable / ConstantBit rate : 1 671 kb/s / 768 kb/sChannel(s) : 5 channelsChannel positions : Front: L C R, Side: L RSampling rate : 48.0 kHzFrame rate : 93.750 FPS (512 SPF)Bit depth : 16 bitsCompression mode : Lossless / LossyDelay relative to video : -336 msStream size : 1.97 GiB (6%)Default : NoForced : No
Audio #3ID : 4Format : MPEG AudioFormat version : Version 1Format profile : Layer 2Codec ID : A_MPEG/L2Codec ID/Hint : MP2Duration : 2 h 49 minBit rate mode : ConstantBit rate : 384 kb/sChannel(s) : 2 channelsSampling rate : 48.0 kHzFrame rate : 41.667 FPS (1152 SPF)Compression mode : LossyDelay relative to video : -336 msStream size : 465 MiB (1%)Title : CommentaryLanguage : GermanDefault : NoForced : No
Audio #4ID : 5Format : MPEG AudioFormat version : Version 1Format profile : Layer 2Codec ID : A_MPEG/L2Codec ID/Hint : MP2Duration : 2 h 49 minBit rate mode : ConstantBit rate : 384 kb/sChannel(s) : 2 channelsSampling rate : 48.0 kHzFrame rate : 41.667 FPS (1152 SPF)Compression mode : LossyDelay relative to video : -336 msStream size : 465 MiB (1%)Default : NoForced : No

Скриншоты






Ви не можете починати теми
Ви не можете відповідати на повідомлення
Ви не можете редагувати свої повідомлення
Ви не можете видаляти свої повідомлення
Ви не можете голосувати в опитуваннях
Ви не можете прикріплювати файли до повідомлень
Ви можете скачувати файли