Георг Фридрих Гендель - Мессия / Georg Friedrich Handel - Messiah (Stephen Cleobury, Hillary Summers, Alastair Miles, Lynne Dawson, John Mark Ainsley, Choir Of King\'s College, Crispian Steele Perkins) [2011, Oratoria, Classical, SD Blu-ray 1080i]


Статистика роздачі [Оновити пиров]
Розмір:  18,97 GB   |    Зареєстрований:  1 рік   |    Скачано:  0 раз

Повного джерела не було: Ніколи

by Козак ®
09-Бер-2018 20:18


Георг Фридрих Гендель - Мессия / Georg Friedrich Handel - Messiah (Stephen Cleobury, Hillary Summers, Alastair Miles, Lynne Dawson, John Mark Ainsley, Choir Of King\'s College, Crispian Steele Perkins) [2011, Oratoria, Classical, SD Blu-ray 1080i]

Георг Фридрих Гендель - Мессия / Georg Friedrich Handel - Messiah
Год выпуска: 2011
Лейбл: HOUSE OF CLASSICS
Жанр: Oratoria, Classical
Продолжительность: 02:16:11
Субтитры: нет
Дирижер: Stephen Cleobury
Исполнители:
Alto Vocals – Hillary Summers
Bass Vocals – Alastair Miles
Soprano Vocals – Lynne Dawson
Tenor Vocals – John Mark Ainsley
Choir – Choir Of King's College, Cambridge
Ensemble – Brandenburg Consort
Leader – Roy Goodman
Trumpet – Crispian Steele Perkins
Описание: The most popular and well-loved of all Handel's great oratorios, The Messiah here receives warm if not exactly passionate treatment under the direction of Stephen Cleobury. This is a period-instrument performance featuring Roy Goodman and his Brandenburg Consort, although not one that aims at any inflexible authenticism. The four soloists are all of the first rank, as are, of course, the choristers of King's College, Cambridge. So, musically the concert's credentials are impeccable. The setting is the Pieterskerk, Leiden, which at least boasts a sympathetic acoustic even though its visual beauties are hidden in candlelit gloom. It must have been a charming evening for the audience, but the film version doesn't really have anything more to offer the home viewer than a few close-ups of the soloists and the occasional cutaway shot of an appropriate painting. Hence, this disc will be of interest if you want to see musicians giving a delightful performance instead of just listening to them; but it's no substitute for a good audio recording.
Качество видео: SD Blu-ray
Формат/Контейнер: BDMV
Видео кодек: MPEG2
Аудио кодек: PCM, DTS, AC3
Видео поток: MPEG-2 Video / 15904 kbps / 1080i / 25 fps / 16:9
Аудио#1: English / Dolby Digital Audio / 5.1 / 48 kHz / 448 kbps
Аудио#2: English / DTS Audio / 5.1 / 48 kHz / 768 kbps / 24-bit
Аудио#3: English / LPCM Audio / 2.0 / 48 kHz / 1536 kbps / 16-bit
Источник

Треклист

George Frideric Handel (1685 - 1759)
Messiah, HWV 56

Recorded at Pieterskerk, Leiden, Holland, @ 1993
Part I
1 Sinfonia - Ouverture
2 Recitative - Comfort Ye My People
3 Air - Ev'ry Valley Shall Be Exalted
4 Chorus - And The Glory Of The Lord Shall Be Revealed
5 Recitative - Thus Said The Lord Of Hosts
6 Air - But Who May Abide
7 Chorus - And He Shall Purify
8 Recitative - Behold, A Virgin Shall Conceive
9 Air - O Thou That Tellest
10 Recitative - For Behold, Darkness Shall Cover The Earth
11 Air - The People That Walked In Darkness
12 Chorus - For Unto Us A Child Is Born
13 Pifa - Pastoral Symphony
14 Recitative - There Were Shepherds
15 Chorus - Glory To God In The Highest
16 Air - Rejoice Greatly, O Daughter Of Zion
17 Recitative - Then Shall The Eyes Of The Blind
18 Duet - He Shall Feed His Flock
19 Chorus - His Yoke Is Easy
Part II
20 Chorus - Behold, The Lamb Of God
21 Air - He Was Despised And Rejected Of Men
22 Chorus - Surely He Hath Borne Our Griefs
23 Chorus - And With His Stripes We Are Healed
24 Chorus - All We Like Sheep Have Gone Astray
25 Recitative - All The That See Him
26 Chorus - He Trusted In God
27 Recitative - Thy Rebuke Hath Broken His Heart
28 Air - Behold, And See If There Be Any Sorrow
29 Recitative - He Was Cut Off Out Of The Land
30 Air - But Thou Didst Not Leave
31 Chorus - Lift Up Your Heads
32 Recitative - Unto Which Of The Angels
33 Chorus - Let All The Angels Of God Worship Him
34 Air - Thou Art Gone Up On High
35 Chorus - The Lord Gave The Word
36 Air - How Beautiful Are The Feet
37 Chorus - Their Sound Is Gone Out
38 Air - Why Do The Nations?
39 Chorus - Let Us Break Their Bonds Asunder
40 Recitative - He That Dwelleth In Heaven
41 Air - Thou Shalt Break Them
42 Chorus - Hallelujah!
Part III
43 Air - I Know That My Redeemer
44 Chorus - Since By Man Came Death
45 Recitative - Behold, I Tell You A Mystery
46 Air - The Trumpet Shall Sound
47 Recitative - Then Shall He Brought To Pass
48 Duet - O Death, Where Is Thy Sting?
49 Chorus - But Thanks Be To God
50 Air - If God Be For Us
51 Chorus - Worthy Is The Lamb... Amen
BDInfo
Disc Title:     Handel.Messiah.Choir Of King's College, Brandenburg Consort, Stephen Cleobury.2010.BD1080iDisc Size:      20 374 232 620 bytesProtection:     AACSBD-Java:        NoExtras:         50Hz ContentBDInfo:         0.5.8
Notes:
BDINFO HOME: Cinema Squid http://www.cinemasquid.com/blu-ray/tools/bdinfo
INCLUDES FORUMS REPORT FOR: AVS Forum Blu-ray Audio and Video Specifications Thread http://www.avsforum.com/avs-vb/showthread.php?t=1155731
********************PLAYLIST: 00001.MPLS********************
Total   Video
Title                                                           Codec   Length  Movie Size      Disc Size       Bitrate Bitrate Main Audio Track                          Secondary Audio Track
-----                                                           ------  ------- --------------  --------------  ------- ------- ------------------                        ---------------------
00001.MPLS                                                      MPEG-2  2:16:11 20 281 104 384  20 374 232 620  19,86   15,90   DD AC3 5.1 448Kbps                        DTS 5.1 768Kbps (48kHz/24-bit)
DISC INFO:
Disc Title:     Handel.Messiah.Choir Of King's College, Brandenburg Consort, Stephen Cleobury.2010.BD1080i
Disc Size:      20 374 232 620 bytes
Protection:     AACS
BD-Java:        No
Extras:         50Hz Content
BDInfo:         0.5.8
PLAYLIST REPORT:
Name:                   00001.MPLS
Length:                 2:16:11.160 (h:m:s.ms)
Size:                   20 281 104 384 bytes
Total Bitrate:          19,86 Mbps
VIDEO:
Codec                   Bitrate             Description
-----                   -------             -----------
MPEG-2 Video            15904 kbps          1080i / 25 fps / 16:9
AUDIO:
Codec                           Language        Bitrate         Description
-----                           --------        -------         -----------
Dolby Digital Audio             English         448 kbps        5.1 / 48 kHz / 448 kbps
DTS Audio                       English         768 kbps        5.1 / 48 kHz / 768 kbps / 24-bit
LPCM Audio                      English         1536 kbps       2.0 / 48 kHz / 1536 kbps / 16-bit
FILES:
Name            Time In         Length          Size            Total Bitrate
----            -------         ------          ----            -------------
00002.M2TS      0:00:00.000     2:16:11.080     20 280 981 504  19 856
00003.M2TS      2:16:11.080     0:00:00.080     122 880         12 288
CHAPTERS:
Number          Time In         Length          Avg Video Rate  Max 1-Sec Rate  Max 1-Sec Time  Max 5-Sec Rate  Max 5-Sec Time  Max 10Sec Rate  Max 10Sec Time  Avg Frame Size  Max Frame Size  Max Frame Time
------          -------         ------          --------------  --------------  --------------  --------------  --------------  --------------  --------------  --------------  --------------  --------------
1               0:00:00.000     0:00:00.039     65 022 kbps     0 kbps          00:00:00.000    0 kbps          00:00:00.000    0 kbps          00:00:00.000    162 555 bytes   273 719 bytes   00:00:00.000
2               0:00:00.039     0:03:02.840     15 186 kbps     23 621 kbps     00:01:53.720    19 407 kbps     00:01:54.080    17 881 kbps     00:01:54.080    75 929 bytes    539 886 bytes   00:01:54.120
3               0:03:02.880     0:02:51.840     12 993 kbps     23 931 kbps     00:05:18.679    19 222 kbps     00:05:18.679    18 300 kbps     00:05:18.680    64 964 bytes    479 315 bytes   00:05:18.720
4               0:05:54.720     0:03:20.160     14 043 kbps     26 792 kbps     00:08:53.240    22 320 kbps     00:08:53.240    20 632 kbps     00:08:53.240    70 214 bytes    606 670 bytes   00:05:55.559
5               0:09:14.880     0:02:52.799     17 063 kbps     26 082 kbps     00:10:13.880    20 898 kbps     00:10:13.880    20 122 kbps     00:10:14.120    85 314 bytes    630 864 bytes   00:10:14.160
6               0:12:07.680     0:01:19.200     15 093 kbps     23 043 kbps     00:12:09.079    18 701 kbps     00:12:09.079    18 189 kbps     00:12:09.319    75 463 bytes    361 195 bytes   00:12:10.079
7               0:13:26.880     0:04:03.839     14 347 kbps     31 602 kbps     00:15:08.600    26 038 kbps     00:15:12.320    25 346 kbps     00:15:07.400    71 737 bytes    854 858 bytes   00:15:09.600
8               0:17:30.720     0:02:36.000     17 189 kbps     26 231 kbps     00:19:35.960    21 681 kbps     00:18:20.960    20 861 kbps     00:18:20.920    85 944 bytes    554 729 bytes   00:18:06.240
9               0:20:06.720     0:00:24.960     12 683 kbps     21 993 kbps     00:20:07.160    14 860 kbps     00:20:07.040    13 387 kbps     00:20:06.760    63 414 bytes    458 154 bytes   00:20:07.200
10              0:20:31.680     0:05:26.879     16 132 kbps     29 189 kbps     00:22:25.400    22 887 kbps     00:25:17.719    21 807 kbps     00:25:17.960    80 659 bytes    950 329 bytes   00:22:26.880
11              0:25:58.560     0:02:02.400     13 632 kbps     23 310 kbps     00:25:59.000    20 360 kbps     00:25:59.360    18 990 kbps     00:25:59.199    68 162 bytes    547 870 bytes   00:25:59.400
12              0:28:00.960     0:03:14.880     15 371 kbps     32 628 kbps     00:30:37.880    26 166 kbps     00:30:37.760    25 291 kbps     00:30:37.640    76 856 bytes    748 498 bytes   00:30:38.400
13              0:31:15.840     0:04:02.879     15 854 kbps     32 509 kbps     00:32:44.120    24 861 kbps     00:32:44.000    23 821 kbps     00:32:43.720    79 270 bytes    1 106 993 bytes 00:32:55.680
14              0:35:18.719     0:02:35.040     17 600 kbps     23 102 kbps     00:35:49.400    19 567 kbps     00:36:23.960    19 000 kbps     00:36:22.760    87 998 bytes    550 209 bytes   00:35:19.200
15              0:37:53.760     0:00:32.159     18 594 kbps     31 230 kbps     00:38:24.440    21 505 kbps     00:38:20.920    20 361 kbps     00:38:15.880    92 972 bytes    1 083 431 bytes 00:38:25.440
16              0:38:25.920     0:00:28.799     18 937 kbps     31 398 kbps     00:38:26.360    24 605 kbps     00:38:26.239    23 681 kbps     00:38:25.960    94 684 bytes    1 083 469 bytes 00:38:37.920
17              0:38:54.719     0:00:18.240     18 274 kbps     28 039 kbps     00:39:11.960    19 711 kbps     00:39:07.960    19 037 kbps     00:39:02.920    91 372 bytes    630 208 bytes   00:39:12.239
18              0:39:12.960     0:01:56.639     16 880 kbps     25 660 kbps     00:40:07.160    21 017 kbps     00:39:16.640    20 039 kbps     00:39:13.040    84 402 bytes    536 472 bytes   00:39:13.440
19              0:41:09.600     0:04:18.240     16 791 kbps     29 121 kbps     00:41:28.760    22 690 kbps     00:41:29.120    21 267 kbps     00:41:28.960    83 957 bytes    690 146 bytes   00:41:29.160
20              0:45:27.840     0:00:24.000     18 570 kbps     22 741 kbps     00:45:48.440    20 482 kbps     00:45:46.480    19 935 kbps     00:45:41.720    92 849 bytes    422 265 bytes   00:45:42.239
21              0:45:51.840     0:04:35.039     17 095 kbps     27 864 kbps     00:47:00.920    21 633 kbps     00:47:00.800    20 745 kbps     00:47:29.200    85 475 bytes    604 402 bytes   00:47:00.960
22              0:50:26.880     0:02:33.119     16 244 kbps     27 371 kbps     00:51:49.880    20 767 kbps     00:51:56.600    20 420 kbps     00:51:50.000    81 218 bytes    648 999 bytes   00:51:50.040
23              0:53:00.000     0:02:22.559     16 290 kbps     23 673 kbps     00:53:29.239    20 903 kbps     00:53:28.760    20 446 kbps     00:53:26.240    81 452 bytes    486 639 bytes   00:54:23.880
24              0:55:22.560     0:09:58.080     14 815 kbps     32 321 kbps     00:58:12.920    24 886 kbps     00:58:12.800    23 619 kbps     00:58:12.560    74 073 bytes    877 936 bytes   01:00:42.120
25              1:05:20.640     0:01:42.239     17 122 kbps     27 231 kbps     01:05:22.520    21 036 kbps     01:05:22.400    19 871 kbps     01:05:22.360    85 611 bytes    622 400 bytes   01:05:22.560
26              1:07:02.880     0:01:48.960     14 434 kbps     21 763 kbps     01:08:14.840    18 560 kbps     01:08:15.200    17 773 kbps     01:08:15.040    72 172 bytes    410 303 bytes   01:08:15.240
27              1:08:51.840     0:03:42.720     15 870 kbps     25 981 kbps     01:09:59.960    20 199 kbps     01:10:17.120    19 420 kbps     01:10:15.040    79 349 bytes    589 177 bytes   01:10:00.120
28              1:12:34.560     0:00:51.359     15 324 kbps     30 032 kbps     01:12:46.040    23 847 kbps     01:12:46.000    23 130 kbps     01:12:46.160    76 618 bytes    655 706 bytes   01:12:46.200
29              1:13:25.920     0:02:19.680     16 341 kbps     29 068 kbps     01:14:42.200    21 947 kbps     01:14:42.200    21 097 kbps     01:14:41.920    81 707 bytes    666 028 bytes   01:14:23.040
30              1:15:45.600     0:02:18.239     14 890 kbps     24 011 kbps     01:17:56.120    20 080 kbps     01:17:56.120    17 729 kbps     01:16:33.400    74 450 bytes    491 630 bytes   01:15:47.160
31              1:18:03.840     0:00:53.760     13 330 kbps     22 370 kbps     01:18:43.640    20 104 kbps     01:18:44.000    19 319 kbps     01:18:41.600    66 648 bytes    501 323 bytes   01:18:41.640
32              1:18:57.600     0:00:16.319     16 612 kbps     19 644 kbps     01:19:10.040    17 321 kbps     01:19:08.479    16 855 kbps     01:19:03.760    83 058 bytes    270 430 bytes   01:19:13.439
33              1:19:13.920     0:02:17.760     17 098 kbps     28 395 kbps     01:21:20.479    23 412 kbps     01:21:20.479    21 688 kbps     01:21:20.240    85 492 bytes    765 684 bytes   01:21:20.520
34              1:21:31.680     0:02:59.039     17 321 kbps     26 145 kbps     01:21:43.160    21 520 kbps     01:23:34.040    20 791 kbps     01:23:33.800    86 605 bytes    564 312 bytes   01:21:43.560
35              1:24:30.720     0:00:21.119     11 821 kbps     21 047 kbps     01:24:32.120    14 506 kbps     01:24:31.040    12 583 kbps     01:24:30.760    59 107 bytes    407 149 bytes   01:24:33.120
36              1:24:51.840     0:01:30.720     16 307 kbps     24 710 kbps     01:26:06.200    20 272 kbps     01:26:06.200    18 833 kbps     01:26:02.360    81 535 bytes    508 272 bytes   01:25:54.960
37              1:26:22.560     0:02:17.279     13 729 kbps     22 495 kbps     01:26:52.760    19 274 kbps     01:26:27.200    17 467 kbps     01:26:27.080    68 647 bytes    386 852 bytes   01:26:51.360
38              1:28:39.840     0:02:04.800     15 772 kbps     28 428 kbps     01:30:41.000    20 355 kbps     01:30:39.640    19 180 kbps     01:29:23.000    78 858 bytes    675 707 bytes   01:30:41.040
39              1:30:44.640     0:02:03.359     17 490 kbps     23 662 kbps     01:30:47.960    20 579 kbps     01:30:50.240    20 157 kbps     01:30:50.080    87 452 bytes    482 296 bytes   01:30:50.400
40              1:32:48.000     0:01:51.840     17 686 kbps     25 994 kbps     01:34:02.840    23 110 kbps     01:33:59.960    22 498 kbps     01:33:54.920    88 431 bytes    456 144 bytes   01:33:48.479
41              1:34:39.840     0:01:04.800     14 388 kbps     24 056 kbps     01:35:23.479    20 069 kbps     01:35:20.600    18 589 kbps     01:35:20.600    71 940 bytes    427 121 bytes   01:35:24.479
42              1:35:44.640     0:01:44.159     17 402 kbps     26 497 kbps     01:35:48.439    21 227 kbps     01:36:23.439    20 326 kbps     01:36:24.200    87 009 bytes    493 568 bytes   01:36:54.360
43              1:37:28.800     0:00:12.000     12 363 kbps     20 520 kbps     01:37:39.800    13 173 kbps     01:37:35.800    12 359 kbps     01:37:30.760    61 816 bytes    265 571 bytes   01:37:40.080
44              1:37:40.800     0:01:57.119     14 848 kbps     23 016 kbps     01:39:21.200    20 497 kbps     01:39:25.760    20 094 kbps     01:39:25.520    74 238 bytes    361 757 bytes   01:38:58.080
45              1:39:37.920     0:03:52.800     17 054 kbps     30 412 kbps     01:39:46.520    23 095 kbps     01:39:46.479    22 189 kbps     01:39:46.760    85 268 bytes    660 647 bytes   01:39:46.800
46              1:43:30.720     0:05:50.880     15 870 kbps     26 164 kbps     01:43:39.320    21 020 kbps     01:43:39.280    20 312 kbps     01:43:39.520    79 350 bytes    570 943 bytes   01:49:20.760
47              1:49:21.600     0:02:03.359     16 942 kbps     26 336 kbps     01:49:58.040    22 594 kbps     01:49:57.560    20 936 kbps     01:50:55.880    84 709 bytes    595 807 bytes   01:50:47.160
48              1:51:24.960     0:00:37.920     13 135 kbps     19 645 kbps     01:51:25.400    15 336 kbps     01:51:25.280    13 801 kbps     01:51:25.160    65 676 bytes    348 931 bytes   01:51:25.920
49              1:52:02.880     0:08:00.960     14 758 kbps     32 750 kbps     01:57:20.120    26 081 kbps     01:57:19.520    24 659 kbps     01:58:35.800    73 788 bytes    1 039 656 bytes 01:58:41.280
50              2:00:03.840     0:00:36.000     20 522 kbps     28 738 kbps     02:00:16.280    24 616 kbps     02:00:12.400    24 112 kbps     02:00:07.840    102 610 bytes   547 476 bytes   02:00:08.640
51              2:00:39.840     0:01:20.159     15 076 kbps     23 652 kbps     02:01:54.200    20 611 kbps     02:01:53.600    18 721 kbps     02:01:49.960    75 381 bytes    378 515 bytes   02:01:59.520
52              2:02:00.000     0:02:04.800     16 664 kbps     29 435 kbps     02:02:00.440    22 533 kbps     02:02:00.800    21 808 kbps     02:02:00.640    83 318 bytes    604 336 bytes   02:02:00.960
53              2:04:04.800     0:05:10.079     16 897 kbps     28 234 kbps     02:09:13.879    20 914 kbps     02:04:11.440    20 019 kbps     02:04:11.680    84 483 bytes    691 122 bytes   02:09:14.040
54              2:09:14.879     0:06:56.280     17 062 kbps     30 923 kbps     02:12:08.480    26 221 kbps     02:14:44.480    24 651 kbps     02:14:43.640    85 311 bytes    687 889 bytes   02:12:08.520
STREAM DIAGNOSTICS:
File            PID             Type            Codec           Language                Seconds                 Bitrate                 Bytes           Packets
----            ---             ----            -----           --------                --------------          --------------          -------------   -----
00002.M2TS      4113 (0x1011)   0x02            MPEG-2                                  8171,040                15 904                  16 243 960 198  88 401 273
00002.M2TS      4352 (0x1100)   0x81            AC3             eng (English)           8171,040                448                     457 581 824     2 553 470
00002.M2TS      4353 (0x1101)   0x82            DTS             eng (English)           8171,040                755                     770 638 252     4 596 252
00002.M2TS      4354 (0x1102)   0x80            LPCM            eng (English)           8171,040                1 542                   1 575 395 792   9 805 368
00003.M2TS      4113 (0x1011)   0x02            MPEG-2                                  0                       0                       57 322          313
00003.M2TS      4352 (0x1100)   0x81            AC3             eng (English)           0                       0                       20 480          120
00003.M2TS      4353 (0x1101)   0x81            AC3             eng (English)           0                       0                       20 480          120
00003.M2TS      4354 (0x1102)   0x80            LPCM            eng (English)           0                       0                       3 856           24
QUICK SUMMARY:
Disc Title: Handel.Messiah.Choir Of King's College, Brandenburg Consort, Stephen Cleobury.2010.BD1080iDisc Size: 20 374 232 620 bytesProtection: AACSBD-Java: NoPlaylist: 00001.MPLSSize: 20 281 104 384 bytesLength: 2:16:11.160Total Bitrate: 19,86 MbpsVideo: MPEG-2 Video / 15904 kbps / 1080i / 25 fps / 16:9Audio: English / Dolby Digital Audio / 5.1 / 48 kHz / 448 kbpsAudio: English / DTS Audio / 5.1 / 48 kHz / 768 kbps / 24-bitAudio: English / LPCM Audio / 2.0 / 48 kHz / 1536 kbps / 16-bit
********************PLAYLIST: 00000.MPLS********************[/pre]
Total   Video
Title                                                           Codec   Length  Movie Size      Disc Size       Bitrate Bitrate Main Audio Track                          Secondary Audio Track
-----                                                           ------  ------- --------------  --------------  ------- ------- ------------------                        ---------------------
00000.MPLS                                                      MPEG-2  0:00:23 90 316 800      20 374 232 620  31,41   29,51   DD AC3 5.1 448Kbps
DISC INFO:
Disc Title:     Handel.Messiah.Choir Of King's College, Brandenburg Consort, Stephen Cleobury.2010.BD1080i
Disc Size:      20 374 232 620 bytes
Protection:     AACS
BD-Java:        No
Extras:         50Hz Content
BDInfo:         0.5.8
PLAYLIST REPORT:
Name:                   00000.MPLS
Length:                 0:00:23.000 (h:m:s.ms)
Size:                   90 316 800 bytes
Total Bitrate:          31,41 Mbps
VIDEO:
Codec                   Bitrate             Description
-----                   -------             -----------
MPEG-2 Video            29512 kbps          1080i / 25 fps / 16:9
AUDIO:
Codec                           Language        Bitrate         Description
-----                           --------        -------         -----------
Dolby Digital Audio             English         448 kbps        5.1 / 48 kHz / 448 kbps
FILES:
Name            Time In         Length          Size            Total Bitrate
----            -------         ------          ----            -------------
00000.M2TS      0:00:00.000     0:00:22.919     90 224 640      31 437
00001.M2TS      0:00:22.919     0:00:00.080     92 160          9 216
CHAPTERS:
Number          Time In         Length          Avg Video Rate  Max 1-Sec Rate  Max 1-Sec Time  Max 5-Sec Rate  Max 5-Sec Time  Max 10Sec Rate  Max 10Sec Time  Avg Frame Size  Max Frame Size  Max Frame Time
------          -------         ------          --------------  --------------  --------------  --------------  --------------  --------------  --------------  --------------  --------------  --------------
1               0:00:00.000     0:00:00.039     18 311 kbps     0 kbps          00:00:00.000    0 kbps          00:00:00.000    0 kbps          00:00:00.000    45 777 bytes    65 590 bytes    00:00:00.000
2               0:00:00.039     0:00:22.960     29 582 kbps     39 776 kbps     00:00:04.279    36 228 kbps     00:00:04.240    35 543 kbps     00:00:03.800    147 912 bytes   675 657 bytes   00:00:03.360
STREAM DIAGNOSTICS:
File            PID             Type            Codec           Language                Seconds                 Bitrate                 Bytes           Packets
----            ---             ----            -----           --------                --------------          --------------          -------------   -----
00000.M2TS      4113 (0x1011)   0x02            MPEG-2                                  22,920                  29 646                  84 935 858      461 935
00000.M2TS      4352 (0x1100)   0x81            AC3             eng (English)           22,920                  448                     1 284 864       7 170
00001.M2TS      4113 (0x1011)   0x02            MPEG-2                                  0                       0                       57 322          313
00001.M2TS      4352 (0x1100)   0x81            AC3             eng (English)           0                       0                       20 480          120
QUICK SUMMARY:
Disc Title: Handel.Messiah.Choir Of King's College, Brandenburg Consort, Stephen Cleobury.2010.BD1080iDisc Size: 20 374 232 620 bytesProtection: AACSBD-Java: NoPlaylist: 00000.MPLSSize: 90 316 800 bytesLength: 0:00:23.000Total Bitrate: 31,41 MbpsVideo: MPEG-2 Video / 29512 kbps / 1080i / 25 fps / 16:9Audio: English / Dolby Digital Audio / 5.1 / 48 kHz / 448 kbps[/pre]

Скриншоты






Ви не можете починати теми
Ви не можете відповідати на повідомлення
Ви не можете редагувати свої повідомлення
Ви не можете видаляти свої повідомлення
Ви не можете голосувати в опитуваннях
Ви не можете прикріплювати файли до повідомлень
Ви можете скачувати файли