Keeping Score - Hector Berlioz Symphonie fantastique (Michael Tilson Thomas, San Francisco Symphony) [2009, Classcal, Blu-ray]


Статистика роздачі [Оновити пиров]
Розмір:  32,86 GB   |    Зареєстрований:  1 рік   |    Скачано:  0 раз

Повного джерела не було: Ніколи

by Козак ®
09-Бер-2018 20:18


Keeping Score - Hector Berlioz Symphonie fantastique (Michael Tilson Thomas, San Francisco Symphony) [2009, Classcal, Blu-ray]

Keeping Score - Hector Berlioz Symphonie fantastique
Год выпуска: 2009
Лейбл: SFS Media
Жанр: Classcal
Продолжительность: 01:55:15 + 01:00:07
Язык: Английский
Перевод: нет
Субтитры: English, Spanish, French, German, Chinese
Дирижер: Michael Tilson Thomas
Исполнители: San Francisco Symphony
Треклист:
Hector Berlioz (1803–1869)
• Symphonie fantastique
1 Rêveries-Passions (Reveries, Passions) 15:16
2 Un Bal (A Ball) 6:45
3 Scène aux champs (Scene in the Fields) 17:33
4 Marche au supplice (March to the Scaffold) 6:38
5 Songe d’une nuit de sabbat (Dream of a Witches’ Sabbath) 9:36
Symphonie fantastique [01:55:15]
Symphonie fantastique in Concert [01:00:07]
Дополнительно:
Video inside the orchestra [00:08:14]
About Keeping Score
About Michael Tilson Thomas
About San Francisco Symphony
Трейлеры
Описание: • "I feel, therefore I am." For Hector Berlioz, and for the Romantic Movement, those were more than words; they were a song of the heart. But with the unprecedented outpouring of emotion in his Symphonie fantastique Berlioz almost overpowered Paris. This orchestral sonic spectacular, written to win the heart of a beautiful actress, demanded sacrifice from its author and his audience. From romantic daydreams to deadly displays of devotion, the symphony relates an “episode in the life of an artist,” that artist being the love-obsessed composer himself. This symphony encapsulates the inner drama – and trauma – that made Berlioz one of the masters.
Качество видео: Blu-ray
Формат/Контейнер: BDMV
Видео кодек: H.264
Аудио кодек: AC3
Видео поток: MPEG-4 AVC Video / 24032 kbps / 1080i / 29,970 fps / 16:9 / High Profile 4.1
Аудио#1: English / Dolby TrueHD Audio / 2.0 / 48 kHz / 1059 kbps / 24-bit (AC3 Embedded: 2.0 / 48 kHz / 640 kbps / DN -5dB)
Аудио#2: English / Dolby TrueHD Audio / 5.1 / 48 kHz / 2637 kbps / 24-bit (AC3 Embedded: 5.1 / 48 kHz / 640 kbps / DN -4dB)
Аудио#3: English / Dolby TrueHD Audio / 7.1 / 48 kHz / 2278 kbps / 24-bit (AC3 Embedded: 5.1 / 48 kHz / 640 kbps / DN -4dB)
BDInfo
Disc Title:     KEEPING_SCORE_BERLIOZDisc Size:      35 281 150 078 bytesProtection:     AACSBD-Java:        YesBDInfo:         0.5.8
Notes:
BDINFO HOME: Cinema Squid http://www.cinemasquid.com/blu-ray/tools/bdinfo
INCLUDES FORUMS REPORT FOR: AVS Forum Blu-ray Audio and Video Specifications Thread http://www.avsforum.com/avs-vb/showthread.php?t=1155731
********************PLAYLIST: 00003.MPLS********************
Total   Video
Title                                                           Codec   Length  Movie Size      Disc Size       Bitrate Bitrate Main Audio Track                          Secondary Audio Track
-----                                                           ------  ------- --------------  --------------  ------- ------- ------------------                        ---------------------
00003.MPLS                                                      AVC     1:55:15 31 271 442 432  35 281 150 078  36,18   24,03   Dolby TrueHD 2.0 1059Kbps (48kHz/24-bit)  Dolby TrueHD 5.1 2637Kbps (48kHz/24-bit)
DISC INFO:
Disc Title:     KEEPING_SCORE_BERLIOZ
Disc Size:      35 281 150 078 bytes
Protection:     AACS
BD-Java:        Yes
BDInfo:         0.5.8
PLAYLIST REPORT:
Name:                   00003.MPLS
Length:                 1:55:15.208 (h:m:s.ms)
Size:                   31 271 442 432 bytes
Total Bitrate:          36,18 Mbps
VIDEO:
Codec                   Bitrate             Description
-----                   -------             -----------
MPEG-4 AVC Video        24032 kbps          1080i / 29,970 fps / 16:9 / High Profile 4.1
AUDIO:
Codec                           Language        Bitrate         Description
-----                           --------        -------         -----------
Dolby TrueHD Audio              English         1059 kbps       2.0 / 48 kHz / 1059 kbps / 24-bit (AC3 Embedded: 2.0 / 48 kHz / 640 kbps / DN -5dB)
Dolby TrueHD Audio              English         2637 kbps       5.1 / 48 kHz / 2637 kbps / 24-bit (AC3 Embedded: 5.1 / 48 kHz / 640 kbps / DN -4dB)
Dolby TrueHD Audio              English         2278 kbps       7.1 / 48 kHz / 2278 kbps / 24-bit (AC3 Embedded: 5.1 / 48 kHz / 640 kbps / DN -4dB)
SUBTITLES:
Codec                           Language        Bitrate         Description
-----                           --------        -------         -----------
Presentation Graphics           English         29,122 kbps
Presentation Graphics           Spanish         30,298 kbps
Presentation Graphics           French          30,266 kbps
Presentation Graphics           German          31,840 kbps
Presentation Graphics           Chinese         26,826 kbps
Presentation Graphics           Chinese         25,603 kbps
FILES:
Name            Time In         Length          Size            Total Bitrate
----            -------         ------          ----            -------------
00014.M2TS      0:00:00.000     0:55:08.071     12 940 204 032  31 294
00015.M2TS      0:55:08.071     0:59:59.128     18 325 641 216  40 734
00023.M2TS      1:55:07.200     0:00:08.008     5 597 184       5 568
CHAPTERS:
Number          Time In         Length          Avg Video Rate  Max 1-Sec Rate  Max 1-Sec Time  Max 5-Sec Rate  Max 5-Sec Time  Max 10Sec Rate  Max 10Sec Time  Avg Frame Size  Max Frame Size  Max Frame Time
------          -------         ------          --------------  --------------  --------------  --------------  --------------  --------------  --------------  --------------  --------------  --------------
1               0:00:00.000     0:00:08.908     3 460 kbps      5 870 kbps      00:00:03.703    4 775 kbps      00:00:03.837    0 kbps          00:00:00.000    14 375 bytes    97 256 bytes    00:00:07.474
2               0:00:08.908     0:02:57.277     22 097 kbps     45 801 kbps     00:03:02.015    37 041 kbps     00:02:58.244    34 368 kbps     00:02:53.239    92 163 bytes    726 109 bytes   00:01:51.811
3               0:03:06.185     0:04:15.455     21 647 kbps     45 346 kbps     00:04:53.159    38 529 kbps     00:06:23.549    36 032 kbps     00:06:23.082    90 285 bytes    666 131 bytes   00:06:34.794
4               0:07:21.641     0:03:07.720     22 306 kbps     41 323 kbps     00:08:01.781    37 848 kbps     00:08:00.580    35 272 kbps     00:07:57.109    93 035 bytes    552 683 bytes   00:07:57.143
5               0:10:29.362     0:03:19.132     23 252 kbps     40 920 kbps     00:12:26.779    35 460 kbps     00:12:04.957    34 656 kbps     00:12:20.005    96 978 bytes    551 470 bytes   00:12:57.676
6               0:13:48.494     0:02:12.465     21 617 kbps     40 885 kbps     00:15:23.122    33 073 kbps     00:14:39.078    31 062 kbps     00:14:06.278    90 162 bytes    547 790 bytes   00:15:25.958
7               0:16:00.960     0:02:47.934     24 428 kbps     46 276 kbps     00:18:17.529    40 127 kbps     00:18:26.338    38 034 kbps     00:18:21.333    101 883 bytes   524 782 bytes   00:16:51.143
8               0:18:48.894     0:03:06.419     27 444 kbps     45 307 kbps     00:20:40.539    37 675 kbps     00:19:14.520    36 789 kbps     00:19:09.481    114 463 bytes   546 464 bytes   00:21:07.766
9               0:21:55.314     0:02:02.121     25 892 kbps     43 859 kbps     00:23:55.934    37 555 kbps     00:22:33.452    36 292 kbps     00:22:29.014    107 992 bytes   551 443 bytes   00:23:19.998
10              0:23:57.435     0:05:46.346     20 705 kbps     41 782 kbps     00:26:35.493    37 665 kbps     00:26:35.160    35 561 kbps     00:26:33.858    86 359 bytes    548 594 bytes   00:24:27.032
11              0:29:43.782     0:03:15.795     27 514 kbps     42 313 kbps     00:32:19.938    37 913 kbps     00:32:50.635    36 762 kbps     00:32:49.567    114 754 bytes   553 101 bytes   00:30:34.432
12              0:32:59.577     0:01:59.486     29 242 kbps     47 055 kbps     00:33:52.997    42 468 kbps     00:33:51.629    39 453 kbps     00:33:47.859    121 965 bytes   748 012 bytes   00:34:43.981
13              0:34:59.063     0:03:23.236     26 401 kbps     46 348 kbps     00:35:14.912    41 873 kbps     00:38:08.886    39 183 kbps     00:38:05.149    110 113 bytes   550 063 bytes   00:38:04.248
14              0:38:22.300     0:04:06.246     27 238 kbps     46 154 kbps     00:41:40.931    39 721 kbps     00:41:37.828    38 774 kbps     00:41:33.724    113 606 bytes   553 600 bytes   00:41:24.181
15              0:42:28.546     0:02:45.431     26 581 kbps     45 305 kbps     00:44:40.511    40 823 kbps     00:44:37.341    37 687 kbps     00:44:33.537    110 864 bytes   553 151 bytes   00:44:43.247
16              0:45:13.977     0:02:27.881     25 135 kbps     43 713 kbps     00:46:39.663    40 209 kbps     00:46:37.027    38 376 kbps     00:46:36.326    104 833 bytes   551 509 bytes   00:47:41.859
17              0:47:41.859     0:02:32.152     28 470 kbps     44 451 kbps     00:48:28.839    38 528 kbps     00:49:22.359    37 276 kbps     00:48:21.565    118 742 bytes   553 597 bytes   00:47:42.793
18              0:50:14.011     0:02:41.494     21 041 kbps     48 188 kbps     00:51:04.161    42 581 kbps     00:51:02.325    38 771 kbps     00:51:02.292    87 758 bytes    554 325 bytes   00:50:17.748
19              0:52:55.505     0:02:12.565     16 025 kbps     39 551 kbps     00:53:00.076    36 508 kbps     00:52:57.274    35 590 kbps     00:52:57.440    66 839 bytes    482 077 bytes   00:53:01.044
20              0:55:08.071     0:01:20.780     14 779 kbps     29 634 kbps     00:55:26.489    24 688 kbps     00:55:22.886    22 720 kbps     00:55:17.747    61 642 bytes    486 476 bytes   00:55:41.871
21              0:56:28.852     0:15:31.597     23 396 kbps     38 274 kbps     01:06:28.684    31 666 kbps     01:09:11.514    30 928 kbps     01:09:11.347    97 583 bytes    617 084 bytes   01:09:14.416
22              1:12:00.449     0:06:55.982     25 044 kbps     34 979 kbps     01:16:00.022    30 937 kbps     01:15:58.787    30 133 kbps     01:16:33.588    104 453 bytes   550 807 bytes   01:18:14.122
23              1:18:56.431     0:17:44.596     24 099 kbps     35 192 kbps     01:28:01.476    29 323 kbps     01:27:57.472    28 594 kbps     01:27:52.700    100 511 bytes   484 384 bytes   01:28:19.227
24              1:36:41.028     0:06:43.069     25 668 kbps     35 169 kbps     01:41:53.607    31 800 kbps     01:41:53.474    30 810 kbps     01:41:52.673    107 059 bytes   602 968 bytes   01:41:55.509
25              1:43:24.097     0:11:50.109     24 140 kbps     36 557 kbps     01:44:31.865    31 519 kbps     01:50:37.630    30 508 kbps     01:50:40.433    100 883 bytes   605 530 bytes   01:51:51.137
26              1:55:14.207     0:00:01.001     59 kbps         0 kbps          00:00:00.000    0 kbps          00:00:00.000    0 kbps          00:00:00.000    321 bytes       329 bytes       01:55:15.174
STREAM DIAGNOSTICS:
File            PID             Type            Codec           Language                Seconds                 Bitrate                 Bytes           Packets
----            ---             ----            -----           --------                --------------          --------------          -------------   -----
00014.M2TS      4113 (0x1011)   0x1B            AVC                                     3308,005                24 073                  9 954 080 207   54 156 095
00014.M2TS      4352 (0x1100)   0x83            TrueHD          eng (English)           3308,005                1 328                   549 076 410     5 523 791
00014.M2TS      4353 (0x1101)   0x83            TrueHD          eng (English)           3308,005                2 127                   879 631 718     6 785 420
00014.M2TS      4608 (0x1200)   0x90            PGS             eng (English)           3308,005                59                      24 524 751      137 778
00014.M2TS      4609 (0x1201)   0x90            PGS             spa (Spanish)           3308,005                61                      25 422 489      142 751
00014.M2TS      4610 (0x1202)   0x90            PGS             fra (French)            3308,005                62                      25 469 186      143 049
00014.M2TS      4611 (0x1203)   0x90            PGS             deu (German)            3308,005                65                      26 716 654      149 790
00014.M2TS      4612 (0x1204)   0x90            PGS             zho (Chinese)           3308,005                54                      22 425 381      126 536
00014.M2TS      4613 (0x1205)   0x90            PGS             zho (Chinese)           3308,005                52                      21 378 880      120 859
00015.M2TS      4113 (0x1011)   0x1B            AVC                                     3599,062                24 047                  10 818 545 374  58 859 348
00015.M2TS      4352 (0x1100)   0x83            TrueHD          eng (English)           3599,062                2 043                   919 136 612     6 941 393
00015.M2TS      4353 (0x1101)   0x83            TrueHD          eng (English)           3599,062                4 340                   1 952 277 772   13 273 796
00015.M2TS      4354 (0x1102)   0x83            TrueHD          eng (English)           3599,062                5 607                   2 522 354 902   16 225 939
00015.M2TS      4608 (0x1200)   0x90            PGS             eng (English)           3599,062                1                       647 284         3 650
00015.M2TS      4609 (0x1201)   0x90            PGS             spa (Spanish)           3599,062                2                       765 917         4 315
00015.M2TS      4610 (0x1202)   0x90            PGS             fra (French)            3599,062                2                       691 489         3 900
00015.M2TS      4611 (0x1203)   0x90            PGS             deu (German)            3599,062                2                       804 340         4 508
00015.M2TS      4612 (0x1204)   0x90            PGS             zho (Chinese)           3599,062                2                       761 516         4 317
00015.M2TS      4613 (0x1205)   0x90            PGS             zho (Chinese)           3599,062                2                       750 873         4 263
00023.M2TS      4113 (0x1011)   0x1B            AVC                                     7,908                   354                     349 503         2 006
00023.M2TS      4352 (0x1100)   0x83            TrueHD          eng (English)           7,908                   751                     742 764         13 375
00023.M2TS      4353 (0x1101)   0x83            TrueHD          eng (English)           7,908                   952                     940 578         13 375
00023.M2TS      4608 (0x1200)   0x90            PGS             eng (English)           7,908                   1                       1 402           15
00023.M2TS      4609 (0x1201)   0x90            PGS             spa (Spanish)           7,908                   1                       1 402           15
00023.M2TS      4610 (0x1202)   0x90            PGS             fra (French)            7,908                   1                       1 402           15
00023.M2TS      4611 (0x1203)   0x90            PGS             deu (German)            7,908                   1                       1 402           15
00023.M2TS      4612 (0x1204)   0x90            PGS             zho (Chinese)           7,908                   1                       1 402           15
00023.M2TS      4613 (0x1205)   0x90            PGS             zho (Chinese)           7,908                   1                       1 402           15
QUICK SUMMARY:
Disc Title: KEEPING_SCORE_BERLIOZDisc Size: 35 281 150 078 bytesProtection: AACSBD-Java: YesPlaylist: 00003.MPLSSize: 31 271 442 432 bytesLength: 1:55:15.208Total Bitrate: 36,18 MbpsVideo: MPEG-4 AVC Video / 24032 kbps / 1080i / 29,970 fps / 16:9 / High Profile 4.1Audio: English / Dolby TrueHD Audio / 2.0 / 48 kHz / 1059 kbps / 24-bit (AC3 Embedded: 2.0 / 48 kHz / 640 kbps / DN -5dB)Audio: English / Dolby TrueHD Audio / 5.1 / 48 kHz / 2637 kbps / 24-bit (AC3 Embedded: 5.1 / 48 kHz / 640 kbps / DN -4dB)Audio: English / Dolby TrueHD Audio / 7.1 / 48 kHz / 2278 kbps / 24-bit (AC3 Embedded: 5.1 / 48 kHz / 640 kbps / DN -4dB)Subtitle: English / 29,122 kbpsSubtitle: Spanish / 30,298 kbpsSubtitle: French / 30,266 kbpsSubtitle: German / 31,840 kbpsSubtitle: Chinese / 26,826 kbpsSubtitle: Chinese / 25,603 kbps
********************PLAYLIST: 00002.MPLS********************[/pre]
Total   Video
Title                                                           Codec   Length  Movie Size      Disc Size       Bitrate Bitrate Main Audio Track                          Secondary Audio Track
-----                                                           ------  ------- --------------  --------------  ------- ------- ------------------                        ---------------------
00002.MPLS                                                      AVC     1:00:07 18 333 818 880  35 281 150 078  40,66   23,99   Dolby TrueHD 2.0 1400Kbps (48kHz/24-bit)  Dolby TrueHD 5.1 3692Kbps (48kHz/24-bit)
DISC INFO:
Disc Title:     KEEPING_SCORE_BERLIOZ
Disc Size:      35 281 150 078 bytes
Protection:     AACS
BD-Java:        Yes
BDInfo:         0.5.8
PLAYLIST REPORT:
Name:                   00002.MPLS
Length:                 1:00:07.136 (h:m:s.ms)
Size:                   18 333 818 880 bytes
Total Bitrate:          40,66 Mbps
VIDEO:
Codec                   Bitrate             Description
-----                   -------             -----------
MPEG-4 AVC Video        23994 kbps          1080i / 29,970 fps / 16:9 / High Profile 4.1
AUDIO:
Codec                           Language        Bitrate         Description
-----                           --------        -------         -----------
Dolby TrueHD Audio              English         1400 kbps       2.0 / 48 kHz / 1400 kbps / 24-bit (AC3 Embedded: 2.0 / 48 kHz / 640 kbps / DN -5dB)
Dolby TrueHD Audio              English         3692 kbps       5.1 / 48 kHz / 3692 kbps / 24-bit (AC3 Embedded: 5.1 / 48 kHz / 640 kbps / DN -4dB)
Dolby TrueHD Audio              English         4957 kbps       7.1 / 48 kHz / 4957 kbps / 24-bit (AC3 Embedded: 5.1 / 48 kHz / 640 kbps / DN -4dB)
SUBTITLES:
Codec                           Language        Bitrate         Description
-----                           --------        -------         -----------
Presentation Graphics           English         1,439 kbps
Presentation Graphics           Spanish         1,702 kbps
Presentation Graphics           French          1,537 kbps
Presentation Graphics           German          1,787 kbps
Presentation Graphics           Chinese         1,692 kbps
Presentation Graphics           Chinese         1,668 kbps
FILES:
Name            Time In         Length          Size            Total Bitrate
----            -------         ------          ----            -------------
00015.M2TS      0:00:00.000     0:59:59.128     18 325 641 216  40 734
00022.M2TS      0:59:59.128     0:00:08.008     8 177 664       8 136
CHAPTERS:
Number          Time In         Length          Avg Video Rate  Max 1-Sec Rate  Max 1-Sec Time  Max 5-Sec Rate  Max 5-Sec Time  Max 10Sec Rate  Max 10Sec Time  Avg Frame Size  Max Frame Size  Max Frame Time
------          -------         ------          --------------  --------------  --------------  --------------  --------------  --------------  --------------  --------------  --------------  --------------
1               0:00:00.000     0:01:20.780     14 780 kbps     29 634 kbps     00:00:18.418    24 688 kbps     00:00:14.814    22 720 kbps     00:00:09.676    61 618 bytes    486 476 bytes   00:00:33.800
2               0:01:20.780     0:15:31.597     23 396 kbps     38 274 kbps     00:11:20.613    31 666 kbps     00:14:03.442    30 928 kbps     00:14:03.275    97 583 bytes    617 084 bytes   00:14:06.345
3               0:16:52.378     0:06:55.982     25 044 kbps     34 979 kbps     00:20:51.950    30 937 kbps     00:20:50.716    30 133 kbps     00:21:25.517    104 453 bytes   550 807 bytes   00:23:06.051
4               0:23:48.360     0:17:44.596     24 099 kbps     35 192 kbps     00:32:53.404    29 323 kbps     00:32:49.400    28 594 kbps     00:32:44.629    100 511 bytes   484 384 bytes   00:33:11.155
5               0:41:32.957     0:06:43.069     25 668 kbps     35 169 kbps     00:46:45.536    31 800 kbps     00:46:45.402    30 810 kbps     00:46:44.601    107 059 bytes   602 968 bytes   00:46:47.437
6               0:48:16.026     0:11:50.109     24 140 kbps     36 557 kbps     00:49:23.794    31 519 kbps     00:55:29.559    30 508 kbps     00:55:32.362    100 883 bytes   605 530 bytes   00:56:43.066
7               1:00:06.135     0:00:01.000     59 kbps         0 kbps          00:00:00.000    0 kbps          00:00:00.000    0 kbps          00:00:00.000    321 bytes       329 bytes       01:00:07.103
STREAM DIAGNOSTICS:
File            PID             Type            Codec           Language                Seconds                 Bitrate                 Bytes           Packets
----            ---             ----            -----           --------                --------------          --------------          -------------   -----
00015.M2TS      4113 (0x1011)   0x1B            AVC                                     3599,062                24 047                  10 818 545 374  58 859 348
00015.M2TS      4352 (0x1100)   0x83            TrueHD          eng (English)           3599,062                2 043                   919 136 612     6 941 393
00015.M2TS      4353 (0x1101)   0x83            TrueHD          eng (English)           3599,062                4 340                   1 952 277 772   13 273 796
00015.M2TS      4354 (0x1102)   0x83            TrueHD          eng (English)           3599,062                5 607                   2 522 354 902   16 225 939
00015.M2TS      4608 (0x1200)   0x90            PGS             eng (English)           3599,062                1                       647 284         3 650
00015.M2TS      4609 (0x1201)   0x90            PGS             spa (Spanish)           3599,062                2                       765 917         4 315
00015.M2TS      4610 (0x1202)   0x90            PGS             fra (French)            3599,062                2                       691 489         3 900
00015.M2TS      4611 (0x1203)   0x90            PGS             deu (German)            3599,062                2                       804 340         4 508
00015.M2TS      4612 (0x1204)   0x90            PGS             zho (Chinese)           3599,062                2                       761 516         4 317
00015.M2TS      4613 (0x1205)   0x90            PGS             zho (Chinese)           3599,062                2                       750 873         4 263
00022.M2TS      4113 (0x1011)   0x1B            AVC                                     7,908                   354                     349 503         2 006
00022.M2TS      4352 (0x1100)   0x83            TrueHD          eng (English)           7,908                   751                     742 764         13 375
00022.M2TS      4353 (0x1101)   0x83            TrueHD          eng (English)           7,908                   952                     940 578         13 375
00022.M2TS      4354 (0x1102)   0x83            TrueHD          eng (English)           7,908                   1 245                   1 230 848       13 451
00022.M2TS      4608 (0x1200)   0x90            PGS             eng (English)           7,908                   1                       1 402           15
00022.M2TS      4609 (0x1201)   0x90            PGS             spa (Spanish)           7,908                   1                       1 402           15
00022.M2TS      4610 (0x1202)   0x90            PGS             fra (French)            7,908                   1                       1 402           15
00022.M2TS      4611 (0x1203)   0x90            PGS             deu (German)            7,908                   1                       1 402           15
00022.M2TS      4612 (0x1204)   0x90            PGS             zho (Chinese)           7,908                   1                       1 402           15
00022.M2TS      4613 (0x1205)   0x90            PGS             zho (Chinese)           7,908                   1                       1 402           15
QUICK SUMMARY:
Disc Title: KEEPING_SCORE_BERLIOZDisc Size: 35 281 150 078 bytesProtection: AACSBD-Java: YesPlaylist: 00002.MPLSSize: 18 333 818 880 bytesLength: 1:00:07.136Total Bitrate: 40,66 MbpsVideo: MPEG-4 AVC Video / 23994 kbps / 1080i / 29,970 fps / 16:9 / High Profile 4.1Audio: English / Dolby TrueHD Audio / 2.0 / 48 kHz / 1400 kbps / 24-bit (AC3 Embedded: 2.0 / 48 kHz / 640 kbps / DN -5dB)Audio: English / Dolby TrueHD Audio / 5.1 / 48 kHz / 3692 kbps / 24-bit (AC3 Embedded: 5.1 / 48 kHz / 640 kbps / DN -4dB)Audio: English / Dolby TrueHD Audio / 7.1 / 48 kHz / 4957 kbps / 24-bit (AC3 Embedded: 5.1 / 48 kHz / 640 kbps / DN -4dB)Subtitle: English / 1,439 kbpsSubtitle: Spanish / 1,702 kbpsSubtitle: French / 1,537 kbpsSubtitle: German / 1,787 kbpsSubtitle: Chinese / 1,692 kbpsSubtitle: Chinese / 1,668 kbps
********************PLAYLIST: 00001.MPLS********************[/pre]
Total   Video
Title                                                           Codec   Length  Movie Size      Disc Size       Bitrate Bitrate Main Audio Track                          Secondary Audio Track
-----                                                           ------  ------- --------------  --------------  ------- ------- ------------------                        ---------------------
00001.MPLS                                                      AVC     0:55:16 12 945 801 216  35 281 150 078  31,23   24,01   Dolby TrueHD 2.0 686Kbps (48kHz/16-bit)   Dolby TrueHD 5.1 1484Kbps (48kHz/16-bit)
DISC INFO:
Disc Title:     KEEPING_SCORE_BERLIOZ
Disc Size:      35 281 150 078 bytes
Protection:     AACS
BD-Java:        Yes
BDInfo:         0.5.8
PLAYLIST REPORT:
Name:                   00001.MPLS
Length:                 0:55:16.079 (h:m:s.ms)
Size:                   12 945 801 216 bytes
Total Bitrate:          31,23 Mbps
VIDEO:
Codec                   Bitrate             Description
-----                   -------             -----------
MPEG-4 AVC Video        24015 kbps          1080i / 29,970 fps / 16:9 / High Profile 4.1
AUDIO:
Codec                           Language        Bitrate         Description
-----                           --------        -------         -----------
Dolby TrueHD Audio              English         686 kbps        2.0 / 48 kHz / 686 kbps / 16-bit (AC3 Embedded: 2.0 / 48 kHz / 640 kbps / DN -5dB)
Dolby TrueHD Audio              English         1484 kbps       5.1 / 48 kHz / 1484 kbps / 16-bit (AC3 Embedded: 5.1 / 48 kHz / 640 kbps / DN -4dB)
SUBTITLES:
Codec                           Language        Bitrate         Description
-----                           --------        -------         -----------
Presentation Graphics           English         59,168 kbps
Presentation Graphics           Spanish         61,334 kbps
Presentation Graphics           French          61,447 kbps
Presentation Graphics           German          64,456 kbps
Presentation Graphics           Chinese         54,104 kbps
Presentation Graphics           Chinese         51,579 kbps
FILES:
Name            Time In         Length          Size            Total Bitrate
----            -------         ------          ----            -------------
00014.M2TS      0:00:00.000     0:55:08.071     12 940 204 032  31 294
00023.M2TS      0:55:08.071     0:00:08.008     5 597 184       5 568
CHAPTERS:
Number          Time In         Length          Avg Video Rate  Max 1-Sec Rate  Max 1-Sec Time  Max 5-Sec Rate  Max 5-Sec Time  Max 10Sec Rate  Max 10Sec Time  Avg Frame Size  Max Frame Size  Max Frame Time
------          -------         ------          --------------  --------------  --------------  --------------  --------------  --------------  --------------  --------------  --------------  --------------
1               0:00:00.000     0:00:08.908     3 460 kbps      5 870 kbps      00:00:03.703    4 775 kbps      00:00:03.837    0 kbps          00:00:00.000    14 375 bytes    97 256 bytes    00:00:07.474
2               0:00:08.908     0:02:57.277     22 097 kbps     45 801 kbps     00:03:02.015    37 041 kbps     00:02:58.244    34 368 kbps     00:02:53.239    92 163 bytes    726 109 bytes   00:01:51.811
3               0:03:06.185     0:04:15.455     21 647 kbps     45 346 kbps     00:04:53.159    38 529 kbps     00:06:23.549    36 032 kbps     00:06:23.082    90 285 bytes    666 131 bytes   00:06:34.794
4               0:07:21.641     0:03:07.720     22 306 kbps     41 323 kbps     00:08:01.781    37 848 kbps     00:08:00.580    35 272 kbps     00:07:57.109    93 035 bytes    552 683 bytes   00:07:57.143
5               0:10:29.362     0:03:19.132     23 252 kbps     40 920 kbps     00:12:26.779    35 460 kbps     00:12:04.957    34 656 kbps     00:12:20.005    96 978 bytes    551 470 bytes   00:12:57.676
6               0:13:48.494     0:02:12.465     21 617 kbps     40 885 kbps     00:15:23.122    33 073 kbps     00:14:39.078    31 062 kbps     00:14:06.278    90 162 bytes    547 790 bytes   00:15:25.958
7               0:16:00.960     0:02:47.934     24 428 kbps     46 276 kbps     00:18:17.529    40 127 kbps     00:18:26.338    38 034 kbps     00:18:21.333    101 883 bytes   524 782 bytes   00:16:51.143
8               0:18:48.894     0:03:06.419     27 444 kbps     45 307 kbps     00:20:40.539    37 675 kbps     00:19:14.520    36 789 kbps     00:19:09.481    114 463 bytes   546 464 bytes   00:21:07.766
9               0:21:55.314     0:02:02.121     25 892 kbps     43 859 kbps     00:23:55.934    37 555 kbps     00:22:33.452    36 292 kbps     00:22:29.014    107 992 bytes   551 443 bytes   00:23:19.998
10              0:23:57.435     0:05:46.346     20 705 kbps     41 782 kbps     00:26:35.493    37 665 kbps     00:26:35.160    35 561 kbps     00:26:33.858    86 359 bytes    548 594 bytes   00:24:27.032
11              0:29:43.782     0:03:15.795     27 514 kbps     42 313 kbps     00:32:19.938    37 913 kbps     00:32:50.635    36 762 kbps     00:32:49.567    114 754 bytes   553 101 bytes   00:30:34.432
12              0:32:59.577     0:01:59.486     29 242 kbps     47 055 kbps     00:33:52.997    42 468 kbps     00:33:51.629    39 453 kbps     00:33:47.859    121 965 bytes   748 012 bytes   00:34:43.981
13              0:34:59.063     0:03:23.236     26 401 kbps     46 348 kbps     00:35:14.912    41 873 kbps     00:38:08.886    39 183 kbps     00:38:05.149    110 113 bytes   550 063 bytes   00:38:04.248
14              0:38:22.300     0:04:06.246     27 238 kbps     46 154 kbps     00:41:40.931    39 721 kbps     00:41:37.828    38 774 kbps     00:41:33.724    113 606 bytes   553 600 bytes   00:41:24.181
15              0:42:28.546     0:02:45.431     26 581 kbps     45 305 kbps     00:44:40.511    40 823 kbps     00:44:37.341    37 687 kbps     00:44:33.537    110 864 bytes   553 151 bytes   00:44:43.247
16              0:45:13.977     0:02:27.881     25 135 kbps     43 713 kbps     00:46:39.663    40 209 kbps     00:46:37.027    38 376 kbps     00:46:36.326    104 833 bytes   551 509 bytes   00:47:41.859
17              0:47:41.859     0:02:32.152     28 470 kbps     44 451 kbps     00:48:28.839    38 528 kbps     00:49:22.359    37 276 kbps     00:48:21.565    118 742 bytes   553 597 bytes   00:47:42.793
18              0:50:14.011     0:02:41.494     21 041 kbps     48 188 kbps     00:51:04.161    42 581 kbps     00:51:02.325    38 771 kbps     00:51:02.292    87 758 bytes    554 325 bytes   00:50:17.748
19              0:52:55.505     0:02:19.572     15 240 kbps     39 551 kbps     00:53:00.076    36 508 kbps     00:52:57.274    35 590 kbps     00:52:57.440    64 209 bytes    482 077 bytes   00:53:01.044
20              0:55:15.078     0:00:01.000     59 kbps         0 kbps          00:00:00.000    0 kbps          00:00:00.000    0 kbps          00:00:00.000    321 bytes       329 bytes       00:55:16.046
STREAM DIAGNOSTICS:
File            PID             Type            Codec           Language                Seconds                 Bitrate                 Bytes           Packets
----            ---             ----            -----           --------                --------------          --------------          -------------   -----
00014.M2TS      4113 (0x1011)   0x1B            AVC                                     3308,005                24 073                  9 954 080 207   54 156 095
00014.M2TS      4352 (0x1100)   0x83            TrueHD          eng (English)           3308,005                1 328                   549 076 410     5 523 791
00014.M2TS      4353 (0x1101)   0x83            TrueHD          eng (English)           3308,005                2 127                   879 631 718     6 785 420
00014.M2TS      4608 (0x1200)   0x90            PGS             eng (English)           3308,005                59                      24 524 751      137 778
00014.M2TS      4609 (0x1201)   0x90            PGS             spa (Spanish)           3308,005                61                      25 422 489      142 751
00014.M2TS      4610 (0x1202)   0x90            PGS             fra (French)            3308,005                62                      25 469 186      143 049
00014.M2TS      4611 (0x1203)   0x90            PGS             deu (German)            3308,005                65                      26 716 654      149 790
00014.M2TS      4612 (0x1204)   0x90            PGS             zho (Chinese)           3308,005                54                      22 425 381      126 536
00014.M2TS      4613 (0x1205)   0x90            PGS             zho (Chinese)           3308,005                52                      21 378 880      120 859
00023.M2TS      4113 (0x1011)   0x1B            AVC                                     7,908                   354                     349 503         2 006
00023.M2TS      4352 (0x1100)   0x83            TrueHD          eng (English)           7,908                   751                     742 764         13 375
00023.M2TS      4353 (0x1101)   0x83            TrueHD          eng (English)           7,908                   952                     940 578         13 375
00023.M2TS      4608 (0x1200)   0x90            PGS             eng (English)           7,908                   1                       1 402           15
00023.M2TS      4609 (0x1201)   0x90            PGS             spa (Spanish)           7,908                   1                       1 402           15
00023.M2TS      4610 (0x1202)   0x90            PGS             fra (French)            7,908                   1                       1 402           15
00023.M2TS      4611 (0x1203)   0x90            PGS             deu (German)            7,908                   1                       1 402           15
00023.M2TS      4612 (0x1204)   0x90            PGS             zho (Chinese)           7,908                   1                       1 402           15
00023.M2TS      4613 (0x1205)   0x90            PGS             zho (Chinese)           7,908                   1                       1 402           15
QUICK SUMMARY:
Disc Title: KEEPING_SCORE_BERLIOZDisc Size: 35 281 150 078 bytesProtection: AACSBD-Java: YesPlaylist: 00001.MPLSSize: 12 945 801 216 bytesLength: 0:55:16.079Total Bitrate: 31,23 MbpsVideo: MPEG-4 AVC Video / 24015 kbps / 1080i / 29,970 fps / 16:9 / High Profile 4.1Audio: English / Dolby TrueHD Audio / 2.0 / 48 kHz / 686 kbps / 16-bit (AC3 Embedded: 2.0 / 48 kHz / 640 kbps / DN -5dB)Audio: English / Dolby TrueHD Audio / 5.1 / 48 kHz / 1484 kbps / 16-bit (AC3 Embedded: 5.1 / 48 kHz / 640 kbps / DN -4dB)Subtitle: English / 59,168 kbpsSubtitle: Spanish / 61,334 kbpsSubtitle: French / 61,447 kbpsSubtitle: German / 64,456 kbpsSubtitle: Chinese / 54,104 kbpsSubtitle: Chinese / 51,579 kbps
********************PLAYLIST: 00004.MPLS********************[/pre]
Total   Video
Title                                                           Codec   Length  Movie Size      Disc Size       Bitrate Bitrate Main Audio Track                          Secondary Audio Track
-----                                                           ------  ------- --------------  --------------  ------- ------- ------------------                        ---------------------
00004.MPLS                                                      AVC     0:08:14 1 722 703 872   35 281 150 078  27,88   24,16   Dolby TrueHD 2.0 635Kbps (48kHz/16-bit)
DISC INFO:
Disc Title:     KEEPING_SCORE_BERLIOZ
Disc Size:      35 281 150 078 bytes
Protection:     AACS
BD-Java:        Yes
BDInfo:         0.5.8
PLAYLIST REPORT:
Name:                   00004.MPLS
Length:                 0:08:14.277 (h:m:s.ms)
Size:                   1 722 703 872 bytes
Total Bitrate:          27,88 Mbps
VIDEO:
Codec                   Bitrate             Description
-----                   -------             -----------
MPEG-4 AVC Video        24162 kbps          720p / 59,940 fps / 16:9 / High Profile 4.1
AUDIO:
Codec                           Language        Bitrate         Description
-----                           --------        -------         -----------
Dolby TrueHD Audio              English         635 kbps        2.0 / 48 kHz / 635 kbps / 16-bit (AC3 Embedded: 2.0 / 48 kHz / 640 kbps / DN -9dB)
SUBTITLES:
Codec                           Language        Bitrate         Description
-----                           --------        -------         -----------
Presentation Graphics           English         0,023 kbps
Presentation Graphics           Spanish         0,023 kbps
Presentation Graphics           French          0,023 kbps
Presentation Graphics           German          0,023 kbps
Presentation Graphics           Chinese         0,023 kbps
Presentation Graphics           Chinese         0,023 kbps
FILES:
Name            Time In         Length          Size            Total Bitrate
----            -------         ------          ----            -------------
00016.M2TS      0:00:00.000     0:08:14.277     1 722 703 872   27 882
CHAPTERS:
Number          Time In         Length          Avg Video Rate  Max 1-Sec Rate  Max 1-Sec Time  Max 5-Sec Rate  Max 5-Sec Time  Max 10Sec Rate  Max 10Sec Time  Avg Frame Size  Max Frame Size  Max Frame Time
------          -------         ------          --------------  --------------  --------------  --------------  --------------  --------------  --------------  --------------  --------------  --------------
1               0:00:00.000     0:08:14.277     24 162 kbps     40 671 kbps     00:07:30.750    37 151 kbps     00:07:20.940    36 783 kbps     00:07:21.841    50 388 bytes    381 594 bytes   00:07:13.900
STREAM DIAGNOSTICS:
File            PID             Type            Codec           Language                Seconds                 Bitrate                 Bytes           Packets
----            ---             ----            -----           --------                --------------          --------------          -------------   -----
00016.M2TS      4113 (0x1011)   0x1B            AVC                                     494,244                 24 164                  1 492 856 699   8 130 901
00016.M2TS      4352 (0x1100)   0x83            TrueHD          eng (English)           494,244                 1 275                   78 788 160      824 826
00016.M2TS      4608 (0x1200)   0x90            PGS             eng (English)           494,244                 0                       1 402           15
00016.M2TS      4609 (0x1201)   0x90            PGS             spa (Spanish)           494,244                 0                       1 402           15
00016.M2TS      4610 (0x1202)   0x90            PGS             fra (French)            494,244                 0                       1 402           15
00016.M2TS      4611 (0x1203)   0x90            PGS             deu (German)            494,244                 0                       1 402           15
00016.M2TS      4612 (0x1204)   0x90            PGS             zho (Chinese)           494,244                 0                       1 402           15
00016.M2TS      4613 (0x1205)   0x90            PGS             zho (Chinese)           494,244                 0                       1 402           15
QUICK SUMMARY:
Disc Title: KEEPING_SCORE_BERLIOZDisc Size: 35 281 150 078 bytesProtection: AACSBD-Java: YesPlaylist: 00004.MPLSSize: 1 722 703 872 bytesLength: 0:08:14.277Total Bitrate: 27,88 MbpsVideo: MPEG-4 AVC Video / 24162 kbps / 720p / 59,940 fps / 16:9 / High Profile 4.1Audio: English / Dolby TrueHD Audio / 2.0 / 48 kHz / 635 kbps / 16-bit (AC3 Embedded: 2.0 / 48 kHz / 640 kbps / DN -9dB)Subtitle: English / 0,023 kbpsSubtitle: Spanish / 0,023 kbpsSubtitle: French / 0,023 kbpsSubtitle: German / 0,023 kbpsSubtitle: Chinese / 0,023 kbpsSubtitle: Chinese / 0,023 kbps
********************PLAYLIST: 00006.MPLS********************[/pre]
Total   Video
Title                                                           Codec   Length  Movie Size      Disc Size       Bitrate Bitrate Main Audio Track                          Secondary Audio Track
-----                                                           ------  ------- --------------  --------------  ------- ------- ------------------                        ---------------------
00006.MPLS                                                      AVC     0:04:51 297 277 440     35 281 150 078  8,17    5,29    Dolby TrueHD 2.0 659Kbps (48kHz/16-bit)
DISC INFO:
Disc Title:     KEEPING_SCORE_BERLIOZ
Disc Size:      35 281 150 078 bytes
Protection:     AACS
BD-Java:        Yes
BDInfo:         0.5.8
PLAYLIST REPORT:
Name:                   00006.MPLS
Length:                 0:04:51.090 (h:m:s.ms)
Size:                   297 277 440 bytes
Total Bitrate:          8,17 Mbps
VIDEO:
Codec                   Bitrate             Description
-----                   -------             -----------
MPEG-4 AVC Video        5293 kbps           480i / 29,970 fps / 16:9 / High Profile 4.1
AUDIO:
Codec                           Language        Bitrate         Description
-----                           --------        -------         -----------
Dolby TrueHD Audio              English         659 kbps        2.0 / 48 kHz / 659 kbps / 16-bit (AC3 Embedded: 2.0 / 48 kHz / 640 kbps / DN -3dB)
SUBTITLES:
Codec                           Language        Bitrate         Description
-----                           --------        -------         -----------
Presentation Graphics           English         0,039 kbps
Presentation Graphics           Spanish         0,039 kbps
Presentation Graphics           French          0,039 kbps
Presentation Graphics           German          0,039 kbps
Presentation Graphics           Chinese         0,039 kbps
Presentation Graphics           Chinese         0,039 kbps
FILES:
Name            Time In         Length          Size            Total Bitrate
----            -------         ------          ----            -------------
00018.M2TS      0:00:00.000     0:04:51.090     297 277 440     8 170
CHAPTERS:
Number          Time In         Length          Avg Video Rate  Max 1-Sec Rate  Max 1-Sec Time  Max 5-Sec Rate  Max 5-Sec Time  Max 10Sec Rate  Max 10Sec Time  Avg Frame Size  Max Frame Size  Max Frame Time
------          -------         ------          --------------  --------------  --------------  --------------  --------------  --------------  --------------  --------------  --------------  --------------
1               0:00:00.000     0:04:51.090     5 293 kbps      13 073 kbps     00:02:09.829    10 804 kbps     00:02:20.073    9 846 kbps      00:02:16.135    22 075 bytes    210 727 bytes   00:01:16.176
STREAM DIAGNOSTICS:
File            PID             Type            Codec           Language                Seconds                 Bitrate                 Bytes           Packets
----            ---             ----            -----           --------                --------------          --------------          -------------   -----
00018.M2TS      4113 (0x1011)   0x1B            AVC                                     291,024                 5 294                   192 583 448     1 051 752
00018.M2TS      4352 (0x1100)   0x83            TrueHD          eng (English)           291,024                 1 299                   47 255 184      486 676
00018.M2TS      4608 (0x1200)   0x90            PGS             eng (English)           291,024                 0                       1 402           15
00018.M2TS      4609 (0x1201)   0x90            PGS             spa (Spanish)           291,024                 0                       1 402           15
00018.M2TS      4610 (0x1202)   0x90            PGS             fra (French)            291,024                 0                       1 402           15
00018.M2TS      4611 (0x1203)   0x90            PGS             deu (German)            291,024                 0                       1 402           15
00018.M2TS      4612 (0x1204)   0x90            PGS             zho (Chinese)           291,024                 0                       1 402           15
00018.M2TS      4613 (0x1205)   0x90            PGS             zho (Chinese)           291,024                 0                       1 402           15
QUICK SUMMARY:
Disc Title: KEEPING_SCORE_BERLIOZDisc Size: 35 281 150 078 bytesProtection: AACSBD-Java: YesPlaylist: 00006.MPLSSize: 297 277 440 bytesLength: 0:04:51.090Total Bitrate: 8,17 MbpsVideo: MPEG-4 AVC Video / 5293 kbps / 480i / 29,970 fps / 16:9 / High Profile 4.1Audio: English / Dolby TrueHD Audio / 2.0 / 48 kHz / 659 kbps / 16-bit (AC3 Embedded: 2.0 / 48 kHz / 640 kbps / DN -3dB)Subtitle: English / 0,039 kbpsSubtitle: Spanish / 0,039 kbpsSubtitle: French / 0,039 kbpsSubtitle: German / 0,039 kbpsSubtitle: Chinese / 0,039 kbpsSubtitle: Chinese / 0,039 kbps
********************PLAYLIST: 00009.MPLS********************[/pre]
Total   Video
Title                                                           Codec   Length  Movie Size      Disc Size       Bitrate Bitrate Main Audio Track                          Secondary Audio Track
-----                                                           ------  ------- --------------  --------------  ------- ------- ------------------                        ---------------------
00009.MPLS                                                      AVC     0:03:53 234 823 680     35 281 150 078  8,04    5,17    Dolby TrueHD 2.0 404Kbps (48kHz/16-bit)
DISC INFO:
Disc Title:     KEEPING_SCORE_BERLIOZ
Disc Size:      35 281 150 078 bytes
Protection:     AACS
BD-Java:        Yes
BDInfo:         0.5.8
PLAYLIST REPORT:
Name:                   00009.MPLS
Length:                 0:03:53.600 (h:m:s.ms)
Size:                   234 823 680 bytes
Total Bitrate:          8,04 Mbps
VIDEO:
Codec                   Bitrate             Description
-----                   -------             -----------
MPEG-4 AVC Video        5175 kbps           480i / 29,970 fps / 16:9 / High Profile 4.1
AUDIO:
Codec                           Language        Bitrate         Description
-----                           --------        -------         -----------
Dolby TrueHD Audio              English         404 kbps        2.0 / 48 kHz / 404 kbps / 16-bit (AC3 Embedded: 2.0 / 48 kHz / 640 kbps / DN -4dB)
SUBTITLES:
Codec                           Language        Bitrate         Description
-----                           --------        -------         -----------
Presentation Graphics           English         0,048 kbps
Presentation Graphics           Spanish         0,048 kbps
Presentation Graphics           French          0,048 kbps
Presentation Graphics           German          0,048 kbps
Presentation Graphics           Chinese         0,048 kbps
Presentation Graphics           Chinese         0,048 kbps
FILES:
Name            Time In         Length          Size            Total Bitrate
----            -------         ------          ----            -------------
00021.M2TS      0:00:00.000     0:03:53.600     234 823 680     8 042
CHAPTERS:
Number          Time In         Length          Avg Video Rate  Max 1-Sec Rate  Max 1-Sec Time  Max 5-Sec Rate  Max 5-Sec Time  Max 10Sec Rate  Max 10Sec Time  Avg Frame Size  Max Frame Size  Max Frame Time
------          -------         ------          --------------  --------------  --------------  --------------  --------------  --------------  --------------  --------------  --------------  --------------
1               0:00:00.000     0:03:53.600     5 175 kbps      15 936 kbps     00:01:27.854    14 848 kbps     00:01:25.618    10 943 kbps     00:01:20.947    21 583 bytes    257 666 bytes   00:01:30.290
STREAM DIAGNOSTICS:
File            PID             Type            Codec           Language                Seconds                 Bitrate                 Bytes           Packets
----            ---             ----            -----           --------                --------------          --------------          -------------   -----
00021.M2TS      4113 (0x1011)   0x1B            AVC                                     233,533                 5 176                   151 100 317     825 278
00021.M2TS      4352 (0x1100)   0x83            TrueHD          eng (English)           233,533                 1 044                   30 473 540      389 820
00021.M2TS      4608 (0x1200)   0x90            PGS             eng (English)           233,533                 0                       1 402           15
00021.M2TS      4609 (0x1201)   0x90            PGS             spa (Spanish)           233,533                 0                       1 402           15
00021.M2TS      4610 (0x1202)   0x90            PGS             fra (French)            233,533                 0                       1 402           15
00021.M2TS      4611 (0x1203)   0x90            PGS             deu (German)            233,533                 0                       1 402           15
00021.M2TS      4612 (0x1204)   0x90            PGS             zho (Chinese)           233,533                 0                       1 402           15
00021.M2TS      4613 (0x1205)   0x90            PGS             zho (Chinese)           233,533                 0                       1 402           15
QUICK SUMMARY:
Disc Title: KEEPING_SCORE_BERLIOZDisc Size: 35 281 150 078 bytesProtection: AACSBD-Java: YesPlaylist: 00009.MPLSSize: 234 823 680 bytesLength: 0:03:53.600Total Bitrate: 8,04 MbpsVideo: MPEG-4 AVC Video / 5175 kbps / 480i / 29,970 fps / 16:9 / High Profile 4.1Audio: English / Dolby TrueHD Audio / 2.0 / 48 kHz / 404 kbps / 16-bit (AC3 Embedded: 2.0 / 48 kHz / 640 kbps / DN -4dB)Subtitle: English / 0,048 kbpsSubtitle: Spanish / 0,048 kbpsSubtitle: French / 0,048 kbpsSubtitle: German / 0,048 kbpsSubtitle: Chinese / 0,048 kbpsSubtitle: Chinese / 0,048 kbps
********************PLAYLIST: 00005.MPLS********************[/pre]
Total   Video
Title                                                           Codec   Length  Movie Size      Disc Size       Bitrate Bitrate Main Audio Track                          Secondary Audio Track
-----                                                           ------  ------- --------------  --------------  ------- ------- ------------------                        ---------------------
00005.MPLS                                                      AVC     0:03:38 222 547 968     35 281 150 078  8,14    5,26    Dolby TrueHD 2.0 617Kbps (48kHz/16-bit)
DISC INFO:
Disc Title:     KEEPING_SCORE_BERLIOZ
Disc Size:      35 281 150 078 bytes
Protection:     AACS
BD-Java:        Yes
BDInfo:         0.5.8
PLAYLIST REPORT:
Name:                   00005.MPLS
Length:                 0:03:38.751 (h:m:s.ms)
Size:                   222 547 968 bytes
Total Bitrate:          8,14 Mbps
VIDEO:
Codec                   Bitrate             Description
-----                   -------             -----------
MPEG-4 AVC Video        5264 kbps           480i / 29,970 fps / 16:9 / High Profile 4.1
AUDIO:
Codec                           Language        Bitrate         Description
-----                           --------        -------         -----------
Dolby TrueHD Audio              English         617 kbps        2.0 / 48 kHz / 617 kbps / 16-bit (AC3 Embedded: 2.0 / 48 kHz / 640 kbps / DN -3dB)
SUBTITLES:
Codec                           Language        Bitrate         Description
-----                           --------        -------         -----------
Presentation Graphics           English         0,051 kbps
Presentation Graphics           Spanish         0,051 kbps
Presentation Graphics           French          0,051 kbps
Presentation Graphics           German          0,051 kbps
Presentation Graphics           Chinese         0,051 kbps
Presentation Graphics           Chinese         0,051 kbps
FILES:
Name            Time In         Length          Size            Total Bitrate
----            -------         ------          ----            -------------
00017.M2TS      0:00:00.000     0:03:38.751     222 547 968     8 139
CHAPTERS:
Number          Time In         Length          Avg Video Rate  Max 1-Sec Rate  Max 1-Sec Time  Max 5-Sec Rate  Max 5-Sec Time  Max 10Sec Rate  Max 10Sec Time  Avg Frame Size  Max Frame Size  Max Frame Time
------          -------         ------          --------------  --------------  --------------  --------------  --------------  --------------  --------------  --------------  --------------  --------------
1               0:00:00.000     0:03:38.751     5 264 kbps      13 720 kbps     00:03:33.813    12 450 kbps     00:03:29.809    11 917 kbps     00:03:25.271    21 957 bytes    158 381 bytes   00:00:15.882
STREAM DIAGNOSTICS:
File            PID             Type            Codec           Language                Seconds                 Bitrate                 Bytes           Packets
----            ---             ----            -----           --------                --------------          --------------          -------------   -----
00017.M2TS      4113 (0x1011)   0x1B            AVC                                     218,685                 5 266                   143 950 357     786 166
00017.M2TS      4352 (0x1100)   0x83            TrueHD          eng (English)           218,685                 1 257                   34 367 294      365 478
00017.M2TS      4608 (0x1200)   0x90            PGS             eng (English)           218,685                 0                       1 402           15
00017.M2TS      4609 (0x1201)   0x90            PGS             spa (Spanish)           218,685                 0                       1 402           15
00017.M2TS      4610 (0x1202)   0x90            PGS             fra (French)            218,685                 0                       1 402           15
00017.M2TS      4611 (0x1203)   0x90            PGS             deu (German)            218,685                 0                       1 402           15
00017.M2TS      4612 (0x1204)   0x90            PGS             zho (Chinese)           218,685                 0                       1 402           15
00017.M2TS      4613 (0x1205)   0x90            PGS             zho (Chinese)           218,685                 0                       1 402           15
QUICK SUMMARY:
Disc Title: KEEPING_SCORE_BERLIOZDisc Size: 35 281 150 078 bytesProtection: AACSBD-Java: YesPlaylist: 00005.MPLSSize: 222 547 968 bytesLength: 0:03:38.751Total Bitrate: 8,14 MbpsVideo: MPEG-4 AVC Video / 5264 kbps / 480i / 29,970 fps / 16:9 / High Profile 4.1Audio: English / Dolby TrueHD Audio / 2.0 / 48 kHz / 617 kbps / 16-bit (AC3 Embedded: 2.0 / 48 kHz / 640 kbps / DN -3dB)Subtitle: English / 0,051 kbpsSubtitle: Spanish / 0,051 kbpsSubtitle: French / 0,051 kbpsSubtitle: German / 0,051 kbpsSubtitle: Chinese / 0,051 kbpsSubtitle: Chinese / 0,051 kbps
********************PLAYLIST: 00007.MPLS********************[/pre]
Total   Video
Title                                                           Codec   Length  Movie Size      Disc Size       Bitrate Bitrate Main Audio Track                          Secondary Audio Track
-----                                                           ------  ------- --------------  --------------  ------- ------- ------------------                        ---------------------
00007.MPLS                                                      AVC     0:03:22 601 884 672     35 281 150 078  23,72   20,20   Dolby TrueHD 2.0 724Kbps (48kHz/16-bit)
DISC INFO:
Disc Title:     KEEPING_SCORE_BERLIOZ
Disc Size:      35 281 150 078 bytes
Protection:     AACS
BD-Java:        Yes
BDInfo:         0.5.8
PLAYLIST REPORT:
Name:                   00007.MPLS
Length:                 0:03:22.969 (h:m:s.ms)
Size:                   601 884 672 bytes
Total Bitrate:          23,72 Mbps
VIDEO:
Codec                   Bitrate             Description
-----                   -------             -----------
MPEG-4 AVC Video        20198 kbps          1080i / 29,970 fps / 16:9 / High Profile 4.1
AUDIO:
Codec                           Language        Bitrate         Description
-----                           --------        -------         -----------
Dolby TrueHD Audio              English         724 kbps        2.0 / 48 kHz / 724 kbps / 16-bit (AC3 Embedded: 2.0 / 48 kHz / 640 kbps / DN -5dB)
SUBTITLES:
Codec                           Language        Bitrate         Description
-----                           --------        -------         -----------
Presentation Graphics           English         0,055 kbps
Presentation Graphics           Spanish         0,055 kbps
Presentation Graphics           French          0,055 kbps
Presentation Graphics           German          0,055 kbps
Presentation Graphics           Chinese         0,055 kbps
Presentation Graphics           Chinese         0,055 kbps
FILES:
Name            Time In         Length          Size            Total Bitrate
----            -------         ------          ----            -------------
00019.M2TS      0:00:00.000     0:03:22.969     601 884 672     23 723
CHAPTERS:
Number          Time In         Length          Avg Video Rate  Max 1-Sec Rate  Max 1-Sec Time  Max 5-Sec Rate  Max 5-Sec Time  Max 10Sec Rate  Max 10Sec Time  Avg Frame Size  Max Frame Size  Max Frame Time
------          -------         ------          --------------  --------------  --------------  --------------  --------------  --------------  --------------  --------------  --------------  --------------
1               0:00:00.000     0:03:22.969     20 198 kbps     44 203 kbps     00:00:28.928    38 822 kbps     00:00:28.928    30 581 kbps     00:02:02.755    84 244 bytes    764 746 bytes   00:00:29.896
STREAM DIAGNOSTICS:
File            PID             Type            Codec           Language                Seconds                 Bitrate                 Bytes           Packets
----            ---             ----            -----           --------                --------------          --------------          -------------   -----
00019.M2TS      4113 (0x1011)   0x1B            AVC                                     202,903                 20 205                  512 455 811     2 788 608
00019.M2TS      4352 (0x1100)   0x83            TrueHD          eng (English)           202,903                 1 365                   34 617 444      339 274
00019.M2TS      4608 (0x1200)   0x90            PGS             eng (English)           202,903                 0                       1 402           15
00019.M2TS      4609 (0x1201)   0x90            PGS             spa (Spanish)           202,903                 0                       1 402           15
00019.M2TS      4610 (0x1202)   0x90            PGS             fra (French)            202,903                 0                       1 402           15
00019.M2TS      4611 (0x1203)   0x90            PGS             deu (German)            202,903                 0                       1 402           15
00019.M2TS      4612 (0x1204)   0x90            PGS             zho (Chinese)           202,903                 0                       1 402           15
00019.M2TS      4613 (0x1205)   0x90            PGS             zho (Chinese)           202,903                 0                       1 402           15
QUICK SUMMARY:
Disc Title: KEEPING_SCORE_BERLIOZDisc Size: 35 281 150 078 bytesProtection: AACSBD-Java: YesPlaylist: 00007.MPLSSize: 601 884 672 bytesLength: 0:03:22.969Total Bitrate: 23,72 MbpsVideo: MPEG-4 AVC Video / 20198 kbps / 1080i / 29,970 fps / 16:9 / High Profile 4.1Audio: English / Dolby TrueHD Audio / 2.0 / 48 kHz / 724 kbps / 16-bit (AC3 Embedded: 2.0 / 48 kHz / 640 kbps / DN -5dB)Subtitle: English / 0,055 kbpsSubtitle: Spanish / 0,055 kbpsSubtitle: French / 0,055 kbpsSubtitle: German / 0,055 kbpsSubtitle: Chinese / 0,055 kbpsSubtitle: Chinese / 0,055 kbps
********************PLAYLIST: 00008.MPLS********************[/pre]
Total   Video
Title                                                           Codec   Length  Movie Size      Disc Size       Bitrate Bitrate Main Audio Track                          Secondary Audio Track
-----                                                           ------  ------- --------------  --------------  ------- ------- ------------------                        ---------------------
00008.MPLS                                                      AVC     0:02:35 516 341 760     35 281 150 078  26,62   22,97   Dolby TrueHD 2.0 594Kbps (48kHz/16-bit)
DISC INFO:
Disc Title:     KEEPING_SCORE_BERLIOZ
Disc Size:      35 281 150 078 bytes
Protection:     AACS
BD-Java:        Yes
BDInfo:         0.5.8
PLAYLIST REPORT:
Name:                   00008.MPLS
Length:                 0:02:35.188 (h:m:s.ms)
Size:                   516 341 760 bytes
Total Bitrate:          26,62 Mbps
VIDEO:
Codec                   Bitrate             Description
-----                   -------             -----------
MPEG-4 AVC Video        22972 kbps          1080i / 29,970 fps / 16:9 / High Profile 4.1
AUDIO:
Codec                           Language        Bitrate         Description
-----                           --------        -------         -----------
Dolby TrueHD Audio              English         594 kbps        2.0 / 48 kHz / 594 kbps / 16-bit (AC3 Embedded: 2.0 / 48 kHz / 640 kbps / DN -6dB)
SUBTITLES:
Codec                           Language        Bitrate         Description
-----                           --------        -------         -----------
Presentation Graphics           English         0,072 kbps
Presentation Graphics           Spanish         0,072 kbps
Presentation Graphics           French          0,072 kbps
Presentation Graphics           German          0,072 kbps
Presentation Graphics           Chinese         0,072 kbps
Presentation Graphics           Chinese         0,072 kbps
FILES:
Name            Time In         Length          Size            Total Bitrate
----            -------         ------          ----            -------------
00020.M2TS      0:00:00.000     0:02:35.188     516 341 760     26 618
CHAPTERS:
Number          Time In         Length          Avg Video Rate  Max 1-Sec Rate  Max 1-Sec Time  Max 5-Sec Rate  Max 5-Sec Time  Max 10Sec Rate  Max 10Sec Time  Avg Frame Size  Max Frame Size  Max Frame Time
------          -------         ------          --------------  --------------  --------------  --------------  --------------  --------------  --------------  --------------  --------------  --------------
1               0:00:00.000     0:02:35.188     22 972 kbps     55 478 kbps     00:01:13.640    40 814 kbps     00:01:09.803    38 756 kbps     00:00:33.833    95 814 bytes    768 905 bytes   00:01:13.740
STREAM DIAGNOSTICS:
File            PID             Type            Codec           Language                Seconds                 Bitrate                 Bytes           Packets
----            ---             ----            -----           --------                --------------          --------------          -------------   -----
00020.M2TS      4113 (0x1011)   0x1B            AVC                                     155,122                 22 982                  445 629 817     2 424 580
00020.M2TS      4352 (0x1100)   0x83            TrueHD          eng (English)           155,122                 1 234                   23 936 650      259 374
00020.M2TS      4608 (0x1200)   0x90            PGS             eng (English)           155,122                 0                       1 402           15
00020.M2TS      4609 (0x1201)   0x90            PGS             spa (Spanish)           155,122                 0                       1 402           15
00020.M2TS      4610 (0x1202)   0x90            PGS             fra (French)            155,122                 0                       1 402           15
00020.M2TS      4611 (0x1203)   0x90            PGS             deu (German)            155,122                 0                       1 402           15
00020.M2TS      4612 (0x1204)   0x90            PGS             zho (Chinese)           155,122                 0                       1 402           15
00020.M2TS      4613 (0x1205)   0x90            PGS             zho (Chinese)           155,122                 0                       1 402           15
QUICK SUMMARY:
Disc Title: KEEPING_SCORE_BERLIOZDisc Size: 35 281 150 078 bytesProtection: AACSBD-Java: YesPlaylist: 00008.MPLSSize: 516 341 760 bytesLength: 0:02:35.188Total Bitrate: 26,62 MbpsVideo: MPEG-4 AVC Video / 22972 kbps / 1080i / 29,970 fps / 16:9 / High Profile 4.1Audio: English / Dolby TrueHD Audio / 2.0 / 48 kHz / 594 kbps / 16-bit (AC3 Embedded: 2.0 / 48 kHz / 640 kbps / DN -6dB)Subtitle: English / 0,072 kbpsSubtitle: Spanish / 0,072 kbpsSubtitle: French / 0,072 kbpsSubtitle: German / 0,072 kbpsSubtitle: Chinese / 0,072 kbpsSubtitle: Chinese / 0,072 kbps
********************PLAYLIST: 00011.MPLS********************[/pre]
Total   Video
Title                                                           Codec   Length  Movie Size      Disc Size       Bitrate Bitrate Main Audio Track                          Secondary Audio Track
-----                                                           ------  ------- --------------  --------------  ------- ------- ------------------                        ---------------------
00011.MPLS                                                      AVC     0:01:34 197 455 872     35 281 150 078  16,72   10,87   Dolby TrueHD 7.1 3304Kbps (48kHz/24-bit)
DISC INFO:
Disc Title:     KEEPING_SCORE_BERLIOZ
Disc Size:      35 281 150 078 bytes
Protection:     AACS
BD-Java:        Yes
BDInfo:         0.5.8
PLAYLIST REPORT:
Name:                   00011.MPLS
Length:                 0:01:34.494 (h:m:s.ms)
Size:                   197 455 872 bytes
Total Bitrate:          16,72 Mbps
VIDEO:
Codec                   Bitrate             Description
-----                   -------             -----------
MPEG-4 AVC Video        10873 kbps          1080i / 29,970 fps / 16:9 / High Profile 4.1
AUDIO:
Codec                           Language        Bitrate         Description
-----                           --------        -------         -----------
Dolby TrueHD Audio              English         3304 kbps       7.1 / 48 kHz / 3304 kbps / 24-bit (AC3 Embedded: 5.1 / 48 kHz / 640 kbps)
SUBTITLES:
Codec                           Language        Bitrate         Description
-----                           --------        -------         -----------
Presentation Graphics           English         0,119 kbps
Presentation Graphics           Spanish         0,119 kbps
Presentation Graphics           French          0,119 kbps
Presentation Graphics           German          0,119 kbps
Presentation Graphics           Chinese         0,119 kbps
Presentation Graphics           Chinese         0,119 kbps
FILES:
Name            Time In         Length          Size            Total Bitrate
----            -------         ------          ----            -------------
00025.M2TS      0:00:00.000     0:01:34.494     197 455 872     16 717
CHAPTERS:
Number          Time In         Length          Avg Video Rate  Max 1-Sec Rate  Max 1-Sec Time  Max 5-Sec Rate  Max 5-Sec Time  Max 10Sec Rate  Max 10Sec Time  Avg Frame Size  Max Frame Size  Max Frame Time
------          -------         ------          --------------  --------------  --------------  --------------  --------------  --------------  --------------  --------------  --------------  --------------
1               0:00:00.000     0:01:34.494     10 873 kbps     36 087 kbps     00:00:08.375    18 296 kbps     00:01:09.903    17 330 kbps     00:01:09.068    45 350 bytes    331 303 bytes   00:01:19.412
STREAM DIAGNOSTICS:
File            PID             Type            Codec           Language                Seconds                 Bitrate                 Bytes           Packets
----            ---             ----            -----           --------                --------------          --------------          -------------   -----
00025.M2TS      4113 (0x1011)   0x1B            AVC                                     94,428                  10 881                  128 429 994     699 643
00025.M2TS      4352 (0x1100)   0x83            TrueHD          eng (English)           94,428                  3 946                   46 579 992      325 470
00025.M2TS      4608 (0x1200)   0x90            PGS             eng (English)           94,428                  0                       1 402           15
00025.M2TS      4609 (0x1201)   0x90            PGS             spa (Spanish)           94,428                  0                       1 402           15
00025.M2TS      4610 (0x1202)   0x90            PGS             fra (French)            94,428                  0                       1 402           15
00025.M2TS      4611 (0x1203)   0x90            PGS             deu (German)            94,428                  0                       1 402           15
00025.M2TS      4612 (0x1204)   0x90            PGS             zho (Chinese)           94,428                  0                       1 402           15
00025.M2TS      4613 (0x1205)   0x90            PGS             zho (Chinese)           94,428                  0                       1 402           15
QUICK SUMMARY:
Disc Title: KEEPING_SCORE_BERLIOZDisc Size: 35 281 150 078 bytesProtection: AACSBD-Java: YesPlaylist: 00011.MPLSSize: 197 455 872 bytesLength: 0:01:34.494Total Bitrate: 16,72 MbpsVideo: MPEG-4 AVC Video / 10873 kbps / 1080i / 29,970 fps / 16:9 / High Profile 4.1Audio: English / Dolby TrueHD Audio / 7.1 / 48 kHz / 3304 kbps / 24-bit (AC3 Embedded: 5.1 / 48 kHz / 640 kbps)Subtitle: English / 0,119 kbpsSubtitle: Spanish / 0,119 kbpsSubtitle: French / 0,119 kbpsSubtitle: German / 0,119 kbpsSubtitle: Chinese / 0,119 kbpsSubtitle: Chinese / 0,119 kbps
********************PLAYLIST: 00010.MPLS********************[/pre]
Total   Video
Title                                                           Codec   Length  Movie Size      Disc Size       Bitrate Bitrate Main Audio Track                          Secondary Audio Track
-----                                                           ------  ------- --------------  --------------  ------- ------- ------------------                        ---------------------
00010.MPLS                                                      AVC     0:01:15 122 505 216     35 281 150 078  12,98   8,23    Dolby TrueHD 5.1 2335Kbps (48kHz/24-bit)
DISC INFO:
Disc Title:     KEEPING_SCORE_BERLIOZ
Disc Size:      35 281 150 078 bytes
Protection:     AACS
BD-Java:        Yes
BDInfo:         0.5.8
PLAYLIST REPORT:
Name:                   00010.MPLS
Length:                 0:01:15.475 (h:m:s.ms)
Size:                   122 505 216 bytes
Total Bitrate:          12,98 Mbps
VIDEO:
Codec                   Bitrate             Description
-----                   -------             -----------
MPEG-4 AVC Video        8231 kbps           1080i / 29,970 fps / 16:9 / High Profile 4.1
AUDIO:
Codec                           Language        Bitrate         Description
-----                           --------        -------         -----------
Dolby TrueHD Audio              English         2335 kbps       5.1 / 48 kHz / 2335 kbps / 24-bit (AC3 Embedded: 5.1 / 48 kHz / 640 kbps)
SUBTITLES:
Codec                           Language        Bitrate         Description
-----                           --------        -------         -----------
Presentation Graphics           English         0,149 kbps
Presentation Graphics           Spanish         0,149 kbps
Presentation Graphics           French          0,149 kbps
Presentation Graphics           German          0,149 kbps
Presentation Graphics           Chinese         0,149 kbps
Presentation Graphics           Chinese         0,149 kbps
FILES:
Name            Time In         Length          Size            Total Bitrate
----            -------         ------          ----            -------------
00024.M2TS      0:00:00.000     0:01:15.475     122 505 216     12 985
CHAPTERS:
Number          Time In         Length          Avg Video Rate  Max 1-Sec Rate  Max 1-Sec Time  Max 5-Sec Rate  Max 5-Sec Time  Max 10Sec Rate  Max 10Sec Time  Avg Frame Size  Max Frame Size  Max Frame Time
------          -------         ------          --------------  --------------  --------------  --------------  --------------  --------------  --------------  --------------  --------------  --------------
1               0:00:00.000     0:01:15.475     8 231 kbps      33 446 kbps     00:00:08.375    16 613 kbps     00:00:06.239    14 494 kbps     00:00:54.154    34 329 bytes    419 664 bytes   00:01:04.130
STREAM DIAGNOSTICS:
File            PID             Type            Codec           Language                Seconds                 Bitrate                 Bytes           Packets
----            ---             ----            -----           --------                --------------          --------------          -------------   -----
00024.M2TS      4113 (0x1011)   0x1B            AVC                                     75,342                  8 245                   77 653 047      423 349
00024.M2TS      4352 (0x1100)   0x83            TrueHD          eng (English)           75,342                  2 980                   28 069 558      212 049
00024.M2TS      4608 (0x1200)   0x90            PGS             eng (English)           75,342                  0                       1 402           15
00024.M2TS      4609 (0x1201)   0x90            PGS             spa (Spanish)           75,342                  0                       1 402           15
00024.M2TS      4610 (0x1202)   0x90            PGS             fra (French)            75,342                  0                       1 402           15
00024.M2TS      4611 (0x1203)   0x90            PGS             deu (German)            75,342                  0                       1 402           15
00024.M2TS      4612 (0x1204)   0x90            PGS             zho (Chinese)           75,342                  0                       1 402           15
00024.M2TS      4613 (0x1205)   0x90            PGS             zho (Chinese)           75,342                  0                       1 402           15
QUICK SUMMARY:
Disc Title: KEEPING_SCORE_BERLIOZDisc Size: 35 281 150 078 bytesProtection: AACSBD-Java: YesPlaylist: 00010.MPLSSize: 122 505 216 bytesLength: 0:01:15.475Total Bitrate: 12,98 MbpsVideo: MPEG-4 AVC Video / 8231 kbps / 1080i / 29,970 fps / 16:9 / High Profile 4.1Audio: English / Dolby TrueHD Audio / 5.1 / 48 kHz / 2335 kbps / 24-bit (AC3 Embedded: 5.1 / 48 kHz / 640 kbps)Subtitle: English / 0,149 kbpsSubtitle: Spanish / 0,149 kbpsSubtitle: French / 0,149 kbpsSubtitle: German / 0,149 kbpsSubtitle: Chinese / 0,149 kbpsSubtitle: Chinese / 0,149 kbps[/pre]

Скриншоты





Ви не можете починати теми
Ви не можете відповідати на повідомлення
Ви не можете редагувати свої повідомлення
Ви не можете видаляти свої повідомлення
Ви не можете голосувати в опитуваннях
Ви не можете прикріплювати файли до повідомлень
Ви можете скачувати файли