Johannes Brahms - Piano Concerto No.2 In B Flat Major, Op.83 (Maurizio Pollini, Christian Thielemann, Staatskapelle Dresden) [2014, Classical, piano, orchestral, DVDRip-AVC]


Статистика роздачі [Оновити пиров]
Розмір:  744 MB   |    Зареєстрований:  1 рік   |    Скачано:  0 раз

Повного джерела не було: Ніколи


Johannes Brahms - Piano Concerto No.2 In B Flat Major, Op.83 (Maurizio Pollini, Christian Thielemann, Staatskapelle Dresden) [2014, Classical, piano, orchestral, DVDRip-AVC]

Johannes Brahms - Piano Concerto No.2 In B Flat Major, Op.83
Год выпуска: 2014
Лейбл: Unitel Classica, under exclusive license to Deutsche Grammophon GmbH
Страна-производитель: EU
Жанр: Classical, piano, orchestral
Продолжительность: 00:52:24
Язык: English
Перевод: отсутствует
Субтитры: нет
Режиссер: Henning Kasten
Исполнители:
Maurizio Pollini - piano
Staatskapelle Dresden
Christian Thielemann - conductor
Треклист:
Johannes Brahms
Piano Concerto No.2 In B Flat Major, Op.83:
01. Opening
02. I. Allegro Non Troppo
03. II. Allegro Appassionato
04. III. Andante - Piu Adagio
05. IV. Allegretto Grazioso - Un Poco Piu Presto
06. Applause
07. Credits
Доп. информация: Live recordings: Dresden, Semperoper, 1/2013
Качество видео: DVDRip
Формат/Контейнер: MKV
Видео кодек: H.264
Аудио кодек: AC3
Видео поток: 720х480 (16:9), 1534 kbps, 29,970 fps
Аудио поток: AC3, 448 kbps, 6 ch, 48,0 kHz

Скриншоты

MediaInfo

ОбщееУникальный идентификатор                 : 221926324874411351945962087282816129162 (0xA6F574988659CDFF89E741A8FFB1188A)Полное имя                               : H:\Music video\Johannes Brahms - Piano Concerto No.2 In B Flat Major, Op.83.mkvФормат                                   : MatroskaВерсия формата                           : Version 2Размер файла                             : 744 МбайтПродолжительность                        : 52 м.Общий поток                              : 1984 Кбит/секДата кодирования                         : UTC 2016-09-01 21:59:17Программа кодирования                    : mkvmerge v6.1.0 ('Old Devil') built on Mar  4 2013 09:10:42Библиотека кодирования                   : libebml v1.3.0 + libmatroska v1.4.0
ВидеоИдентификатор : 1Формат : AVCФормат/Информация : Advanced Video CodecПрофиль формата : [email protected]Параметр CABAC формата : ДаПараметр ReFrames формата : 8 кадровИдентификатор кодека : V_MPEG4/ISO/AVCПродолжительность : 52 м.Битрейт : 1534 Кбит/секШирина : 720 пикселейВысота : 480 пикселейСоотношение сторон : 16:9Соотношение сторон в оригинале : 16:9Режим частоты кадров : ПостоянныйЧастота кадров : 29,970 (30000/1001) кадров/секСтандарт вещания : NTSCЦветовое пространство : YUVСубдискретизация насыщенности : 4:2:0Битовая глубина : 8 битТип развёртки : ПрогрессивнаяБит/(Пиксели*Кадры) : 0.148Размер потока : 561 Мбайт (75%)Библиотека кодирования : x264 core 130 r2273 b3065e6Настройки программы : cabac=1 / ref=8 / deblock=1:-1:-1 / analyse=0x3:0x133 / me=umh / subme=10 / psy=1 / psy_rd=1.00:0.10 / mixed_ref=1 / me_range=24 / chroma_me=1 / trellis=2 / 8x8dct=1 / cqm=0 / deadzone=21,11 / fast_pskip=0 / chroma_qp_offset=-3 / threads=6 / lookahead_threads=1 / sliced_threads=0 / nr=0 / decimate=1 / interlaced=0 / bluray_compat=0 / constrained_intra=0 / bframes=6 / b_pyramid=2 / b_adapt=2 / b_bias=0 / direct=3 / weightb=1 / open_gop=0 / weightp=2 / keyint=250 / keyint_min=25 / scenecut=40 / intra_refresh=0 / rc_lookahead=50 / rc=2pass / mbtree=1 / bitrate=1534 / ratetol=1.0 / qcomp=0.60 / qpmin=0 / qpmax=69 / qpstep=4 / cplxblur=20.0 / qblur=0.5 / ip_ratio=1.40 / aq=1:1.00Default : ДаForced : Нет
АудиоИдентификатор : 2Формат : AC-3Формат/Информация : Audio Coding 3Расширение режима : CM (complete main)Параметр Endianness формата : BigИдентификатор кодека : A_AC3Продолжительность : 52 м.Вид битрейта : ПостоянныйБитрейт : 448 Кбит/секКаналы : 6 каналовРасположение каналов : Front: L C R, Side: L R, LFEЧастота : 48,0 КГцЧастота кадров : 31,250 кадров/сек (1536 spf)Метод сжатия : С потерямиРазмер потока : 168 Мбайт (23%)Default : ДаForced : Нет



Ви не можете починати теми
Ви не можете відповідати на повідомлення
Ви не можете редагувати свої повідомлення
Ви не можете видаляти свої повідомлення
Ви не можете голосувати в опитуваннях
Ви не можете прикріплювати файли до повідомлень
Ви можете скачувати файли