Новогодний концерт Венского филармонического оркестра - 2017 / Neujahrskonzert 2017 - Vien [2017, Classic, TVRip]


Статистика роздачі [Оновити пиров]
Розмір:  2,94 GB   |    Зареєстрований:  1 рік   |    Скачано:  0 раз

Повного джерела не було: Ніколи


Новогодний концерт Венского филармонического оркестра - 2017 / Neujahrskonzert 2017 - Vien [2017, Classic, TVRip]

Новогодний концерт Венского филармонического оркестра - 2017
Neujahrskonzert 2017 - Vienna Philharmonic Orchestra

Год выпуска: 2017
Лейбл: ORF
Страна-производитель: Австрия
Жанр: Classical, Concert
Продолжительность: 02:30:40
Язык: Немецкий
Перевод: Русский (Андрей Пряхин)
Субтитры: Нет
Режиссер телевизионной трансляции: Мишель Бейер (Michele Beyer)
Исполнители: Венский Филармонический Оркестр
Дирижер: Густаво Дудамель (Gustavo Dudamel)
Описание: Прямая трансляция Новогоднего концерта Венского филармонического оркестра из Золотого зала Musikverein.
Популярный концерт, который традиционно проходит в Вене в первый день наступившего нового года и транслируется в 90 стран мира, на этот раз проведет венесуэльский дирижер Густаво Дудамель.
Музыкальная основа программы - произведения семьи Штраусов. Танцевальные номера представят солисты Венского государственного балета. Концерт сопровождают видеокартины, а фильм, специально создаваемый для антракта Новогоднего концерта, в этом году сконцентрирован на Вене, городе волшебной сказки, и на ритмах вальса, которые присутствуют повсюду в культуре и традициях Вены.
Качество видео: ipTVRip
Формат/Контейнер: TS
Видео кодек: MPEG-4
Аудио кодек: MP2
Видео поток: 720x576, 4:3, 2802 Kbps, 25fps,
Аудио поток: 192 Kbps, 48.0 KHz, 2 channels

Программа концерта

----------------------- 1 часть -----------------------
01 – FRANZ LEHÁR – Nechledil Marsch aus der Operette “Wiener Frauen”
02 – ÈMILE WALDTEUFEL – Les Patineurs, Walzer op. 183
03 – JOHANN STRAUß Sohn – `S gibt nur d Kaiserstadt, `s gibt nur a Wien, Polka op. 291
04 - JOHANN STRAUß Sohn – Mephistos Höllenrrufe, Walzer op. 101
05 - JOHANN STRAUß Sohn – So ängstlich sind wir nicht! Polka schnell op. 413
06 - FILM – The Rhythm Of Vienna
----------------------- 2 часть -----------------------
07 – FRANZ von SUPPÉ – Ouvertüre zu der Operette “Pique Dame”
08 – CARL MICHAEL ZIEHRER – Hereinspaziert! Walzer aus der Operette
“Der Schätzmeister” op. 518
09 – OTTO NICOLAI – “Mondaufgang” aus der Oper “Die lustigen Weiber von Windsor”
10 - JOHANN STRAUß Sohn – Pepita – Polka op. 138
11 - JOHANN STRAUß Sohn – Die Extravagantenq Walzer op.205
12 - JOHANN STRAUß Vater – Indianer – Galopp op.111
13 – JOSEF STRAUß – Die Nasswalderin, Polka mazur op. 267
14 - JOHANN STRAUß Sohn – Auf zum Tanze! Polka schell op. 436
15 - JOHANN STRAUß Sohn – Tausend und eine Nacht, Walzer nach Motiven der Operette “Indigo”
16 - JOHANN STRAUß Sohn – Tic – Takq Polka schnell op. 365
17 - EDUARD STRAUß – Mit Vergnügenq Polka schnell op. 228
18 - JOHANN STRAUß Sohn – An der schönen blauen Donau, Walzer op. 314
19 - JOHANN STRAUß Vater – Radetzky – Marsch op. 228

Скриншоты

MediaInfo

Format                      : AVIFormat/Info                 : Audio Video InterleaveFile size                   : 2.94 GiBDuration                    : 2h 30mnOverall bit rate            : 2 802 Kbps
VideoID : 0Format : AVCFormat/Info : Advanced Video CodecFormat profile : [email protected] settings, CABAC : YesFormat settings, ReFrames : 4 framesFormat settings, GOP : M=4, N=28Codec ID : H264Duration : 2h 30mnBit rate : 2 592 KbpsWidth : 720 pixelsHeight : 576 pixelsDisplay aspect ratio : 4:3Frame rate : 50.000 fpsOriginal frame rate : 25.000 fpsColor space : YUVChroma subsampling : 4:2:0Bit depth : 8 bitsScan type : InterlacedScan type, store method : Separated fieldsScan order : Top Field FirstBits/(Pixel*Frame) : 0.125Stream size : 2.72 GiB (93%)Color range : LimitedColor primaries : BT.601 PALTransfer characteristics : BT.470 System B, BT.470 System GMatrix coefficients : BT.601
AudioID : 1Format : MPEG AudioFormat version : Version 1Format profile : Layer 2Codec ID : 50Duration : 2h 30mnBit rate mode : ConstantBit rate : 192 KbpsChannel(s) : 2 channelsSampling rate : 48.0 KHzCompression mode : LossyStream size : 206 MiB (7%)Alignment : Aligned on interleavesInterleave, duration : 24 ms (1.20 video frame)
Эта запись без сжатия, обработок и монтажа!
Концерт в YouTubeЗаблокировал Ютьб, типа Права заявлены от имени компании Sony Classical



Ви не можете починати теми
Ви не можете відповідати на повідомлення
Ви не можете редагувати свої повідомлення
Ви не можете видаляти свої повідомлення
Ви не можете голосувати в опитуваннях
Ви не можете прикріплювати файли до повідомлень
Ви можете скачувати файли