Новогодний концерт Венского филармонического оркестра - 2017 / Neujahrskonzert 2017 - Vien [2017, Classic, ipTVRip, MP4]


Статистика роздачі [Оновити пиров]
Розмір:  1,85 GB   |    Зареєстрований:  1 рік   |    Скачано:  0 раз

Повного джерела не було: Ніколи


Новогодний концерт Венского филармонического оркестра - 2017 / Neujahrskonzert 2017 - Vien [2017, Classic, ipTVRip, MP4]

Новогодний концерт Венского филармонического оркестра - 2017 Neujahrskonzert 2017 - Vienna Philharmonic Orchestra
Год выпуска: 2017
Лейбл: ORF
Страна-производитель: Австрия
Жанр: Classical, Concert
Продолжительность: 02:30:40
Язык: Немецкий
Перевод: Русский (Андрей Пряхин)
Режиссер телевизионной трансляции: Мишель Бейер (Michele Beyer)
Исполнители: Венский Филармонический Оркестр
Дирижер: Густаво Дудамель (Gustavo Dudamel)
Описание: Прямая трансляция Новогоднего концерта Венского филармонического оркестра из Золотого зала Musikverein.
Популярный концерт, который традиционно проходит в Вене в первый день наступившего нового года и транслируется в 90 стран мира, на этот раз проведет венесуэльский дирижер Густаво Дудамель.
Музыкальная основа программы - произведения семьи Штраусов. Танцевальные номера представят солисты Венского государственного балета. Концерт сопровождают видеокартины, а фильм, специально создаваемый для антракта Новогоднего концерта, в этом году сконцентрирован на Вене, городе волшебной сказки, и на ритмах вальса, которые присутствуют повсюду в культуре и традициях Вены.
Качество видео: ipTVRip
Формат/Контейнер: MP4
Видео кодек: MPEG4 Video (H264)
Аудио кодек: MP3
Видео поток: 720x416, 4:3, 1561kbps, 25fps,
Аудио поток: 192 Kbps, 48.0 KHz, 2 channels

Программа концерта

----------------------- 1 часть -----------------------
01 – FRANZ LEHÁR – Nechledil Marsch aus der Operette “Wiener Frauen”
02 – ÈMILE WALDTEUFEL – Les Patineurs, Walzer op. 183
03 – JOHANN STRAUß Sohn – `S gibt nur d Kaiserstadt, `s gibt nur a Wien, Polka op. 291
04 - JOHANN STRAUß Sohn – Mephistos Höllenrrufe, Walzer op. 101
05 - JOHANN STRAUß Sohn – So ängstlich sind wir nicht! Polka schnell op. 413
06 - FILM – The Rhythm Of Vienna
----------------------- 2 часть -----------------------
07 – FRANZ von SUPPÉ – Ouvertüre zu der Operette “Pique Dame”
08 – CARL MICHAEL ZIEHRER – Hereinspaziert! Walzer aus der Operette
“Der Schätzmeister” op. 518
09 – OTTO NICOLAI – “Mondaufgang” aus der Oper “Die lustigen Weiber von Windsor”
10 - JOHANN STRAUß Sohn – Pepita – Polka op. 138
11 - JOHANN STRAUß Sohn – Die Extravagantenq Walzer op.205
12 - JOHANN STRAUß Vater – Indianer – Galopp op.111
13 – JOSEF STRAUß – Die Nasswalderin, Polka mazur op. 267
14 - JOHANN STRAUß Sohn – Auf zum Tanze! Polka schell op. 436
15 - JOHANN STRAUß Sohn – Tausend und eine Nacht, Walzer nach Motiven der Operette “Indigo”
16 - JOHANN STRAUß Sohn – Tic – Takq Polka schnell op. 365
17 - EDUARD STRAUß – Mit Vergnügenq Polka schnell op. 228
18 - JOHANN STRAUß Sohn – An der schönen blauen Donau, Walzer op. 314
19 - JOHANN STRAUß Vater – Radetzky – Marsch op. 228

Скриншоты

MediaInfo

Format                      : MPEG-4Format profile              : Base MediaCodec ID                    : isom (isom/iso2/avc1/mp41)File size                   : 1.85 GiBDuration                    : 2h 30mnOverall bit rate            : 1 761 KbpsWriting application         : Lavf54.63.104
VideoID : 1Format : AVCFormat/Info : Advanced Video CodecFormat profile : [email protected] settings, CABAC : YesFormat settings, ReFrames : 4 framesCodec ID : avc1Codec ID/Info : Advanced Video CodingDuration : 2h 30mnBit rate : 1 562 KbpsNominal bit rate : 3 100 KbpsWidth : 720 pixelsHeight : 416 pixelsDisplay aspect ratio : 1.731Frame rate mode : VariableFrame rate : 25.000 fpsMinimum frame rate : 16.667 fpsMaximum frame rate : 50.000 fpsOriginal frame rate : 50.000 fpsColor space : YUVChroma subsampling : 4:2:0Bit depth : 8 bitsScan type : ProgressiveBits/(Pixel*Frame) : 0.209Stream size : 1.64 GiB (89%)Writing library : x264 core 123 r2189 35cf912Encoding settings : cabac=1 / ref=3 / deblock=1:0:0 / analyse=0x3:0x133 / me=hex / subme=7 / psy=1 / psy_rd=1.00:0.00 / mixed_ref=1 / me_range=16 / chroma_me=1 / trellis=1 / 8x8dct=1 / cqm=0 / deadzone=21,11 / fast_pskip=1 / chroma_qp_offset=-2 / threads=6 / sliced_threads=0 / nr=0 / decimate=1 / interlaced=0 / bluray_compat=0 / constrained_intra=0 / bframes=3 / b_pyramid=2 / b_adapt=1 / b_bias=0 / direct=1 / weightb=1 / open_gop=0 / weightp=2 / keyint=250 / keyint_min=25 / scenecut=40 / intra_refresh=0 / rc_lookahead=40 / rc=abr / mbtree=1 / bitrate=3100 / ratetol=1.0 / qcomp=0.60 / qpmin=10 / qpmax=51 / qpstep=4 / ip_ratio=1.40 / aq=1:1.00
AudioID : 2Format : MPEG AudioFormat version : Version 1Format profile : Layer 3Codec ID : 6BDuration : 2h 30mnBit rate mode : ConstantBit rate : 192 KbpsChannel(s) : 2 channelsSampling rate : 48.0 KHzCompression mode : LossyStream size : 206 MiB (11%)Default : YesAlternate group : 1
Эта запись с канала "Культура" без чёрных полей (crop) и со сжатием, в отличии от моего оригинала
Концерт в YouTubeЗаблокировал Ютьб, типа Права заявлены от имени компании Sony Classical
Мона скачать с Я.Диска https://yadi.sk/i/k-dGrvPW37NLHw



Ви не можете починати теми
Ви не можете відповідати на повідомлення
Ви не можете редагувати свої повідомлення
Ви не можете видаляти свої повідомлення
Ви не можете голосувати в опитуваннях
Ви не можете прикріплювати файли до повідомлень
Ви можете скачувати файли