Новогодний концерт Венского филармонического оркестра - 2017 / Neujahrskonzert der Wiener Philharmoniker (Gustavo Dudamel) [2017, Classical, Orchestral, Concert, HDTVRip-AVC]


Статистика роздачі [Оновити пиров]
Розмір:  2,95 GB   |    Зареєстрований:  1 рік   |    Скачано:  0 раз

Повного джерела не було: Ніколи


Новогодний концерт Венского филармонического оркестра - 2017 / Neujahrskonzert der Wiener Philharmoniker (Gustavo Dudamel) [2017, Classical, Orchestral, Concert, HDTVRip-AVC]

Новогодний концерт Венского филармонического оркестра - 2017 / Neujahrskonzert der Wiener Philharmoniker
Год выпуска: 2017
Страна-производитель: Австрия
Жанр: Classical, Orchestral, Concert
Продолжительность: 02:28:30
Язык: Немецкий
Перевод: Русский (Андрей Пряхин)
Дирижёр: Gustavo Dudamel
Исполнители: Wiener Philharmoniker, Singverein der Gesellschaft der Musikfreunde in Wien, Wiener Staatsbalett
Описание: Популярный концерт, который традиционно проходит в Вене в первый день наступившего нового года и транслируется в 90 стран мира, на этот раз проведет венесуэльский дирижер Густаво Дудамель.
Музыкальная основа программы - произведения семьи Штраусов. Танцевальные номера представят солисты Венского государственного балета. Концерт сопровождают видеокартины, а фильм, специально создаваемый для антракта Новогоднего концерта, в этом году сконцентрирован на Вене, городе волшебной сказки, и на ритмах вальса, которые присутствуют повсюду в культуре и традициях Вены.
Доп. информация:
Рип раздачи http://rutracker.org/forum/viewtopic.php?t=5335204 , спасибо anbelk27
Добавлен звук с канала культура с комментариями Андрея Пряхина отдельной дорожкой
Качество видео: HDTVRip-AVC
Формат/Контейнер: MKV
Видео поток: H.264 1024x576 25fps 2195 Kbps
Аудио поток1: AC3 448 Kbps 5.1 48.0 KHz немецкий
Аудио поток2: MP2 192 Kbps 2 ch mono 48.0 KHz русский

Треклист

Часть 1
Franz Lehár
Nechledil Marsch aus der Operette Wiener Frauen
Émile Waldteufel
Les Patineurs. Walzer, op. 183
Johann Strauss, Jr.
S' gibt nur a Kaiserstadt,s' gibt nur a Wien. Polka, op. 291
Josef Strauss
Winterlust. Polka (schnell), op. 121
Johann Strauss, Jr.
Mephistos Höllenrufe. Walzer, op. 101
So ängstlich sind wir nicht! Schnell-Polka, op. 413
The Rhytm of Vienna - музыкальный фильм
Часть 2
Franz von Suppé
Ouvertüre zu Pique Dame
Carl Michael Ziehrer
Hereinspaziert! Walzer aus der Operette „Der Schätzmeister“, op. 518
Otto Nicolai
Die lustigen Weiber von Windsor (The Merry Wives of Windsor), Moon Choir
Johann Strauss, Jr.
Pepita-Polka, op. 138
Rotunde-Quadrille, op. 360
Die Extravaganten. Walzer, op. 205
Johann Strauss, sen.
Indianer-Galopp. op. 111
Josef Strauss
Die Nasswalderin. Polka mazur,op. 267
Johann Strauss, Jr.
Auf zum Tanze! Polka schnell, op. 436
Tausend und eine Nacht. Walzer nach Motiven der Operette "Indigo"

MI

Format : Matroska
Format version : Version 2
File size : 702 MiB
Duration : 33mn 56s
Overall bit rate : 2 893 Kbps
Encoded date : UTC 2017-01-03 16:17:17
Writing application : mkvmerge v5.8.0 ('No Sleep / Pillow') built on Sep 2 2012 15:37:04
Writing library : libebml v1.2.3 + libmatroska v1.3.0
Video
ID : 1
Format : AVC
Format/Info : Advanced Video Codec
Format profile : [email protected]
Format settings, CABAC : Yes
Format settings, ReFrames : 8 frames
Codec ID : V_MPEG4/ISO/AVC
Duration : 33mn 56s
Bit rate : 2 195 Kbps
Width : 1 024 pixels
Height : 576 pixels
Display aspect ratio : 16:9
Frame rate mode : Constant
Frame rate : 25.000 fps
Color space : YUV
Chroma subsampling : 4:2:0
Bit depth : 8 bits
Scan type : Progressive
Bits/(Pixel*Frame) : 0.149
Stream size : 533 MiB (76%)
Writing library : x264 core 125 r2208 d9d2288
Encoding settings : cabac=1 / ref=8 / deblock=1:-1:-1 / analyse=0x3:0x133 / me=umh / subme=9 / psy=1 / psy_rd=1.00:0.10 / mixed_ref=1 / me_range=24 / chroma_me=1 / trellis=2 / 8x8dct=1 / cqm=0 / deadzone=21,11 / fast_pskip=1 / chroma_qp_offset=-3 / threads=6 / lookahead_threads=1 / sliced_threads=0 / nr=0 / decimate=1 / interlaced=0 / bluray_compat=0 / constrained_intra=0 / bframes=6 / b_pyramid=2 / b_adapt=2 / b_bias=0 / direct=3 / weightb=1 / open_gop=0 / weightp=2 / keyint=250 / keyint_min=25 / scenecut=40 / intra_refresh=0 / rc_lookahead=60 / rc=crf / mbtree=1 / crf=20.5 / qcomp=0.60 / qpmin=0 / qpmax=69 / qpstep=4 / ip_ratio=1.40 / aq=1:1.00
Default : Yes
Forced : No
Audio #1
ID : 2
Format : AC-3
Format/Info : Audio Coding 3
Mode extension : CM (complete main)
Format settings, Endianness : Big
Codec ID : A_AC3
Duration : 33mn 56s
Bit rate mode : Constant
Bit rate : 448 Kbps
Channel(s) : 6 channels
Channel positions : Front: L C R, Side: L R, LFE
Sampling rate : 48.0 KHz
Bit depth : 16 bits
Compression mode : Lossy
Stream size : 109 MiB (15%)
Language : German
Default : Yes
Forced : No
Audio #2
ID : 3
Format : MPEG Audio
Format version : Version 1
Format profile : Layer 2
Codec ID : A_MPEG/L2
Codec ID/Hint : MP2
Duration : 33mn 56s
Bit rate mode : Constant
Bit rate : 192 Kbps
Channel(s) : 2 channels
Sampling rate : 48.0 KHz
Compression mode : Lossy
Delay relative to video : 280ms
Stream size : 46.6 MiB (7%)
Language : Russian
Default : No
Forced : No

Скриншоты




Ви не можете починати теми
Ви не можете відповідати на повідомлення
Ви не можете редагувати свої повідомлення
Ви не можете видаляти свої повідомлення
Ви не можете голосувати в опитуваннях
Ви не можете прикріплювати файли до повідомлень
Ви можете скачувати файли