Joe Hisaishi & 9 Cellos - A Wish to the Moon (2003 Etude & Encore Tour) [2003, Классическая музыка, DVDRip]


Статистика роздачі [Оновити пиров]
Розмір:  1,4 GB   |    Зареєстрований:  1 рік   |    Скачано:  1 раз

Повного джерела не було: 4 місяця 16 днів


Joe Hisaishi & 9 Cellos - A Wish to the Moon (2003 Etude & Encore Tour) [2003, Классическая музыка, DVDRip]

Joe Hisaishi & 9 Cellos - A Wish to the Moon (2003 Etude & Encore Tour)
Год выпуска: 2003
Лейбл: ISLAND, A UNIVERSAL MUSIC COMP
Страна-производитель: Япония
Жанр: Классическая музыка
Продолжительность: 1:51:15
Язык: японский
Перевод: отсутствует
Субтитры: отсутствуют
Режиссер/Хореограф: Akira Kito
Исполнители:
Joe Hisaishi - Composed (except"Moonlight Serenade"), Arranged, Produced, Conducted and Piano;
Violoncello:
1st - Hiroshi Kondo-Concert Master, Solist
Takashi Kondo, Susumu Miyake
2nd - Makoto Osawa, Haruki Matsuba
3rd - Yoshihiko Maeda, Masanori Taniguchi
4th - Hiromi Uekusa, Seiko Ishida
Recorded at Tokyo Opera City Concert Hall on April 16, 2003
Produced by
ISLAND, A UNIVERSAL MUSIC COMPANY
FUJIPACIFIC MUSIC INC.
TV MAN UNION INC.
Wonder City INC.
(C) 2003 ISLAND, A UNIVERSAL MUSIC COMPANY

Треклист:

- Encore & Others -
KIKI
Tani eno Michi
View of Silence
Kaze no Torimichi
Asian Dream Song
Friends
Summer
One Summer’s Day
HANA-BI
- Etude -
Moonlight Serenade 〜 Silence
Tsuki ni Tsukareta Otoko
impossible Dream
Yume no Hoshizora
Bolero
a Wish to the Moon
Musee Imaginaire
la pioggia
Tango X.T.C
ToToRo
Madness
Kimidake wo Miteita
Качество видео: DVDRip
Формат/Контейнер: AVI
Видео кодек: XviD
Аудио кодек: MP3
Видео поток: XviD, 1 656 kb/s, 720x480, 29.970 fps, 0.160 bits/pixel
Аудио поток: MPEG-1 Layer 3, 128 kb/s (2/ch, stereo), 44.1 KHz

MediaInfo

General
Complete name : E:\mp3\Joe Hisaishi & 9 Cellos - A Wish to the Moon - movie\Joe Hisaishi & 9 Cellos - A Wish to the Moon.avi
Format : AVI
Format/Info : Audio Video Interleave
File size : 1.40 GiB
Duration : 1h 51mn
Overall bit rate : 1 796 Kbps
Writing application : MEncoder SVN-r30881(20100311-gcc4.3.3)
Writing library : VirtualDub build 32618/release
Video
ID : 0
Format : MPEG-4 Visual
Format profile : Advanced [email protected]
Format settings, BVOP : 2
Format settings, QPel : No
Format settings, GMC : No warppoints
Format settings, Matrix : Default (H.263)
Codec ID : XVID
Codec ID/Hint : XviD
Duration : 1h 51mn
Bit rate : 1 656 Kbps
Width : 720 pixels
Height : 480 pixels
Display aspect ratio : 16:9
Frame rate : 29.970 fps
Standard : NTSC
Color space : YUV
Chroma subsampling : 4:2:0
Bit depth : 8 bits
Scan type : Progressive
Compression mode : Lossy
Bits/(Pixel*Frame) : 0.160
Stream size : 1.29 GiB (92%)
Writing library : XviD 1.2.1 (UTC 2008-12-04)
Audio
ID : 1
Format : MPEG Audio
Format version : Version 1
Format profile : Layer 3
Mode : Joint stereo
Mode extension : MS Stereo
Codec ID : 55
Codec ID/Hint : MP3
Duration : 1h 51mn
Bit rate mode : Constant
Bit rate : 128 Kbps
Channel(s) : 2 channels
Sampling rate : 44.1 KHz
Compression mode : Lossy
Stream size : 102 MiB (7%)
Alignment : Split accross interleaves
Interleave, duration : 33 ms (1.00 video frame)
Interleave, preload duration : 500 ms
Writing library : LAME3.98ЄЄЄЄЄЄЄЄЄЄЄЄ

Скриншоты

Дополнительная информация

Это рип с ДВД9 с этой раздачи http://rutracker.org/forum/viewtopic.php?t=3066595
Сделал для самого себя. Особо не заморачивался, поэтому не обошлось без косяков - в местах склейки конвертируемых VOB частей изображение немного дергается.



Ви не можете починати теми
Ви не можете відповідати на повідомлення
Ви не можете редагувати свої повідомлення
Ви не можете видаляти свої повідомлення
Ви не можете голосувати в опитуваннях
Ви не можете прикріплювати файли до повідомлень
Ви можете скачувати файли