Винсент Ван Гог. Письма к брату [2017, Музыкальная композиция, WEB-DLRip] Московская государственная академическая филармония


Статистика роздачі [Оновити пиров]
Розмір:  2,25 GB   |    Зареєстрований:  1 рік   |    Скачано:  0 раз

Повного джерела не було: Ніколи


Винсент Ван Гог. Письма к брату [2017, Музыкальная композиция, WEB-DLRip] Московская государственная академическая филармония

Винсент Ван Гог. Письма к брату Московская государственная филармония.
Концертный зал имени П. И. Чайковского.

Год выпуска: 2017.
Жанр: Музыкальная композиция.
Продолжительность: 02:40:27.
Исполнители: Жанна Дозорцева (автор цикла, ведущая).
Российский государственный симфонический оркестр кинематографии.
Дирижер
– Сергей Скрипка.
Фортепиано: Виктория Любицкая.
Описание:
В программе:
• Морис Равель. Концерт № 2 для фортепиано с оркестром (для левой руки).
• Морис Равель. «Вальс» – хореографическая поэма.
• Жорж Бизе. «Арлезианка» – фрагменты из музыки к драме А. Доде.

Дополнительная информация:
Страна: Россия .
Запись из Концертного зала имени П. И. Чайковского.
Абонемент №66: Музыка, живопись, жизнь.
Воскресные дневные симфонические концерты.

Концерт состоялся 12 марта 2017 года.
Релиз
Рип lesik689.

Название композиции в записи отсутствует.
Качество видео:...WEB-DLRip
Формат:.................AVI
Видео:..720x400 (1.80:1), 25 fps, XviD MPEG-4 ~1809 kbps avg, 0.25 bit/pixel
Аудио:..48 kHz, MPEG Layer 3, 2 ch, ~192.00 kbps avg

Отчет Media Info

General
Complete name : Vincent.van.Gogh.Pis'ma.k.bratu.2017.XviD.WEB-DLRip.fenixclub.avi
Format : AVI
Format/Info : Audio Video Interleave
Format profile : OpenDML
File size : 2.25 GiB
Duration : 2h 40mn
Overall bit rate : 2 009 Kbps
Writing application : VirtualDubModRus 1.5.10.2 (build 2542/release)
Writing library : VirtualDubMod build 2542/release
Video
ID : 0
Format : MPEG-4 Visual
Format profile : Advanced [email protected]
Format settings, BVOP : 2
Format settings, QPel : No
Format settings, GMC : No warppoints
Format settings, Matrix : Default (MPEG)
Codec ID : XVID
Codec ID/Hint : XviD
Duration : 2h 40mn
Bit rate : 1 805 Kbps
Width : 720 pixels
Height : 400 pixels
Display aspect ratio : 16:9
Frame rate : 25.000 fps
Color space : YUV
Chroma subsampling : 4:2:0
Bit depth : 8 bits
Scan type : Progressive
Compression mode : Lossy
Bits/(Pixel*Frame) : 0.251
Stream size : 2.02 GiB (90%)
Writing library : XviD 73
Audio
ID : 1
Format : MPEG Audio
Format version : Version 1
Format profile : Layer 3
Codec ID : 55
Codec ID/Hint : MP3
Duration : 2h 40mn
Bit rate mode : Constant
Bit rate : 192 Kbps
Channel(s) : 2 channels
Sampling rate : 48.0 KHz
Compression mode : Lossy
Stream size : 220 MiB (10%)
Alignment : Aligned on interleaves
Interleave, duration : 40 ms (1.00 video frame)
Interleave, preload duratio : 504 ms
Writing library : LAME3.99r
Encoding settings : -m s -V 4 -q 0 -lowpass 18.6 -b 192

Скриншоты



Альтернативный хост






Ви не можете починати теми
Ви не можете відповідати на повідомлення
Ви не можете редагувати свої повідомлення
Ви не можете видаляти свої повідомлення
Ви не можете голосувати в опитуваннях
Ви не можете прикріплювати файли до повідомлень
Ви можете скачувати файли