Андрей Тарковский. Время, запечатлённое в звуке [2017, Музыкальная композиция, WEB-DLRip] Московская государственная академическая филармония


Статистика роздачі [Оновити пиров]
Розмір:  2,14 GB   |    Зареєстрований:  1 рік   |    Скачано:  0 раз

Повного джерела не було: Ніколи


Андрей Тарковский. Время, запечатлённое в звуке [2017, Музыкальная композиция, WEB-DLRip] Московская государственная академическая филармония

Андрей Тарковский. Время, запечатлённое в звуке Московская государственная филармония.
Концертный зал имени П. И. Чайковского.

Год выпуска: 2017.
Жанр: Музыкальная композиция.
Продолжительность: 02:32:48.
Фрагменты из дневников Андрея Тарковского читает Виктор Раков.
Российский государственный симфонический оркестр кинематографии.
Дирижер
– Сергей Скрипка.
Государственная академическая хоровая капелла России имени А. А. Юрлова:
Василиса Бержанская (меццо-сопрано), Евгения Смольянинова (народное пение), Екатерина Мельникова (орган), Эдуард Артемьев, Наталья Бондарчук, Николай Бурляев, Антон Долин, Андрей Кончаловский,
Юрий Назаров, Ирма Тарковская-Рауш.
Описание:
программе:
• Е. Мельникова. Импровизация на тему музыки Вячеслава Овчинникова из кинофильма «Андрей Рублёв»,
• В. Овчинников. Пролог из оратории «Сергий Радонежский»,
• Г. Свиридов. «Молитва» из музыки к драме А. К. Толстого «Царь Фёдор Иоаннович»,
• Э. Артемьев. «Сон» – фрагмент из музыки к кинофильму «Зеркало»,
• Дж. Верди. Первая часть “Requiem et Kyrie” («Вечный покой даруй им, Господи») из Реквиема,
• И. С. Бах – Э. Артемьев. «Слушая Баха» – фрагмент из музыки к кинофильму «Солярис» на тему Хоральной прелюдии “Ich ruf zu dir, Herr Jesu Christ” («Я взываю к тебе, Господи Иисусе Христе»),
• Э. Артемьев. «Вступление» – фрагмент из музыки к кинофильму «Сталкер»,
• И. С. Бах. Ария альта “Erbame dich, mein Gott” («Сжалься надо мною, Господь») из «Страстей по Матфею»,
• Русская народная песня «Эй, кумушки, кумитеся, эй, кумушки, любитеся…»,
• И. С. Бах. Первая часть “Herr! Unser Herrscher” («Господи! Владыка наш») из «Страстей по Иоанну».

Дополнительная информация:
Страна: Россия .
Запись из Концертного зала имени П. И. Чайковского.
Абонемент №29:
По волнам нашей памяти.

Концерт состоялся 4 апреля 2017 года, в день 85-летия со дня рождения Андрея Арсеньевича Тарковского.
Релиз
Рип lesik689.

Название композиции в записи отсутствует.
Качество видео:...WEB-DLRip
Формат:.................AVI
Видео:..720x400 (1.80:1), 25 fps, XviD MPEG-4 ~1810 kbps avg, 0.25 bit/pixel
Аудио:..48 kHz, MPEG Layer 3, 2 ch, ~192.00 kbps avg

Отчет Media Info

General
Complete name : Andrey.Tarkovsky.Vremja.zapechatlennoje.v.zvuke.KZCh.2017.WEBRip.fenixclub.com.avi
Format : AVI
Format/Info : Audio Video Interleave
Format profile : OpenDML
File size : 2.14 GiB
Duration : 2h 32mn
Overall bit rate : 2 009 Kbps
Writing application : VirtualDubMod 1.5.10.2 (build 2542/release)
Writing library : VirtualDubMod build 2542/release
Video
ID : 0
Format : MPEG-4 Visual
Format profile : Advanced [email protected]
Format settings, BVOP : 2
Format settings, QPel : No
Format settings, GMC : No warppoints
Format settings, Matrix : Default (MPEG)
Codec ID : XVID
Codec ID/Hint : XviD
Duration : 2h 32mn
Bit rate : 1 805 Kbps
Width : 720 pixels
Height : 400 pixels
Display aspect ratio : 16:9
Frame rate : 25.000 fps
Color space : YUV
Chroma subsampling : 4:2:0
Bit depth : 8 bits
Scan type : Progressive
Compression mode : Lossy
Bits/(Pixel*Frame) : 0.251
Stream size : 1.93 GiB (90%)
Writing library : XviD 73
Audio
ID : 1
Format : MPEG Audio
Format version : Version 1
Format profile : Layer 2
Codec ID : 50
Duration : 2h 32mn
Bit rate mode : Constant
Bit rate : 192 Kbps
Channel(s) : 2 channels
Sampling rate : 48.0 KHz
Compression mode : Lossy
Stream size : 210 MiB (10%)
Alignment : Split accross interleaves
Interleave, duration : 40 ms (1.00 video frame)
Interleave, preload duratio : 500 ms.

Скриншоты


Альтернативный хост





Ви не можете починати теми
Ви не можете відповідати на повідомлення
Ви не можете редагувати свої повідомлення
Ви не можете видаляти свої повідомлення
Ви не можете голосувати в опитуваннях
Ви не можете прикріплювати файли до повідомлень
Ви можете скачувати файли