Джошуа Белл в Концертном зале имени Чайковского (Joshua Bell, Sam Haywood) [2017, Classical, Violin, Piano, DVB-AVC]


Статистика роздачі [Оновити пиров]
Розмір:  1,78 GB   |    Зареєстрований:  1 рік   |    Скачано:  0 раз

Повного джерела не було: Ніколи


Джошуа Белл в Концертном зале имени Чайковского (Joshua Bell, Sam Haywood) [2017, Classical, Violin, Piano, DVB-AVC]

Джошуа Белл в Концертном зале имени Чайковского
Год выпуска: 2017
Страна-производитель: Россия
Жанр: Classical, Violin, Piano
Продолжительность: 01:30:40
Язык: Русский
Субтитры: нет
Исполнители:
Джошуа Белл
Сэм Хейвуд
Треклист:
Бетховен - Соната №1 для скрипки и фортепьяно, соч 12
Брамс - Скерцо из сонаты "F.A.E." для скрипки и фортепьяно,W002
Брамс - Соната №3 для скрипки и фортепьяно, соч 108
Изаи - Соната №3 "Баллада"для скрипки соло, соч 27 №3
Рахманинов - Вокализ
Сарасате - Концертная фантазия на тему оперы "Кармен"
Описание:Джошуа Белл – едва ли не самый востребованный музыкант современности, "суперзвезда классической музыки", обладатель бесчисленного количества премий (в том числе престижнейшей "Грэмми" и премии Эвери Фишера). Его захватывающая виртуозность, тонкое интонирование и артистизм захватывают публику.
Джошуа Белл выступил с давним партнером по сцене – британским пианистом Сэмом Хейвудом. Исполнены произведения Бетховена, Брамса, Изаи, Рахманинова, Сарасате.
Качество видео: DVB-AVC
Формат/Контейнер: MKV
Видео кодек: H.264
Аудио кодек: MP2
Видео поток: 720x576 (4:3) 25fps ~2500kbps
Аудио поток: 48000Hz 2ch mono 192kbps

MiniFaq по релизу. Если вы чем-то недовольны, прочтите обязательно

Каков источник данного видео?
Это прямая запись вещания канала "культура" мультиплекса РТРС-1 в стандарте DVB-T2. монтаж и ремукс программой videoredo.
Можно ли найти записи с канала "культура" в более высоком качестве?
Совершенно точно они есть в телецентре/редакции телеканала. Если же у вас нет туда доступа, остаются записи с эфира и сайта канала. Они все имеют монофонический звук и стандартное разрешение с соотношением сторон кадра 4:3. При этом качество видео в мультиплексе РТРС-1 и, следовательно в этом релизе, выше, чем в сервисах НТВ+, Триколор, на официальном сайте и, конечно же, в аналоговом вещании.
Как решить проблемы с просмотром этого релиза на компьютере?
Если вы испытываете какие-либо проблемы с просмотром на компьютере (включая "эффект расчески" или низкое качество видео в сравнении со скриншотами), то можете использовать портативную версию VLC плеера как наиболее универсальное средство их решения.
Как избавится от "эффекта расчески" (горизонтальные полосы на движущемся объекте) при просмотре?
Нужно включить устранение чересстрочности (деинтерлейсинг) в вашем плеере. Для пользователей VLC: убедитесь, что у вас стоит галочка в меню Видео> устранение чересстрочности> автоматически, также рекомендуется выбрать Видео> режим устранения> Yadif (2x) для получения наибольшей плавности передачи движения.
Почему в кадре присутствует черная рамка и как от нее избавиться?
Вещание ведется с отношением сторон кадра 4:3, при этом к широкоэкранной картинке добавляются черные полосы сверху и снизу. Если вы смотрите такую запись на широком экране, то дополнительно появляются полосы по бокам. Обрезка черных полос в записи возможна только при перекодировании, которое неизбежно приводит к превращению DVB в рип и снижению качества. Полосы могут быть легко убраны вами при воспроизведении. Для просмотра на экранах с отношением сторон большим 4:3 рекомендуется использование функций плеера или телевизора по масштабированию/кадрированию изображения (для VLC плеера: меню> видео> кадрирование> 16:9)
Почему на моем компьютере это видео проигрывается без звука?
У вас не установлен кодек, поддерживающий звук стандарта MP2 (не путать MP3). Попробуйте использовать VLC плеер или обновить кодеки.
Как посмотреть это видео на экране телевизора?
Теоретически должны справиться любые бытовые плееры, поддерживающие mkv-формат, включая встроенные в телевизоры и приставки цифрового телевидения. Практически любой телевизор или приставка цифрового ТВ, поддерживающие DVB-T2 имеют такой плеер. Есть сведения о проблемах с перемоткой в некоторых моделях.
Планируете ли вы выложить вариант раздачи в AVI?
Нет, но вы можете сделать это сами, используя мой релиз как исходник. Инструкций по изготовлению рипов на форуме множество.
Вы поддерживаете перезаливку ваших релизов на другие ресурсы?
Да!

MediaInfo

Format                         : MatroskaFormat version                 : Version 2File size                      : 1.78 GiBDuration                       : 1h 30mnOverall bit rate               : 2 807 KbpsWriting application            : Lavf54.63.104Writing library                : Lavf54.63.104
VideoID : 1Format : AVCFormat/Info : Advanced Video CodecFormat profile : [email protected] settings, CABAC : YesFormat settings, ReFrames : 3 framesFormat settings, GOP : M=4, N=28Codec ID : V_MPEG4/ISO/AVCDuration : 1h 30mnBit rate : 2 559 KbpsWidth : 720 pixelsHeight : 576 pixelsDisplay aspect ratio : 4:3Original display aspect ratio : 4:3Frame rate mode : ConstantFrame rate : 25.000 fpsStandard : ComponentColor space : YUVChroma subsampling : 4:2:0Bit depth : 8 bitsScan type : InterlacedScan order : Top Field FirstBits/(Pixel*Frame) : 0.247Stream size : 1.62 GiB (91%)Default : NoForced : NoColor primaries : BT.601 PALTransfer characteristics : BT.470 System B, BT.470 System GMatrix coefficients : BT.601
AudioID : 2Format : MPEG AudioFormat version : Version 1Format profile : Layer 2Codec ID : A_MPEG/L2Codec ID/Hint : MP2Duration : 1h 30mnBit rate mode : ConstantBit rate : 192 KbpsChannel(s) : 2 channelsSampling rate : 48.0 KHzCompression mode : LossyStream size : 125 MiB (7%)Language : EnglishDefault : YesForced : No

Скриншоты




Ви не можете починати теми
Ви не можете відповідати на повідомлення
Ви не можете редагувати свої повідомлення
Ви не можете видаляти свої повідомлення
Ви не можете голосувати в опитуваннях
Ви не можете прикріплювати файли до повідомлень
Ви можете скачувати файли