They Came To Play (Henri Robert Delbeau, Mark Fuller, Clark Griffith) [2008, Documentary, Classical, DVDRip]


Статистика роздачі [Оновити пиров]
Розмір:  1,14 GB   |    Зареєстрований:  1 рік   |    Скачано:  0 раз

Повного джерела не було: Ніколи


They Came To Play (Henri Robert Delbeau, Mark Fuller, Clark Griffith) [2008, Documentary, Classical, DVDRip]

They Came To Play
Год выпуска: 2008
Лейбл: Docurama
Страна-производитель: USA
Жанр: Documentary, Classical
Продолжительность: 01:31:17
Язык: английский
Перевод: отсутствует
Субтитры: нет
Режиссер: Alexandru Rotaru
Исполнители: Henri Robert Delbeau, Mark Fuller, Clark Griffith
Описание: Показаны будни конкурса Ван Клиберна в Техасе для непрофессиональных пианистов старше 35 лет.
Редкое кино, эксклюзив для рутрекера
Качество видео: DVDRip
Формат/Контейнер: MP4
Видео кодек: H.264
Аудио кодек: AAC
Видео поток: 854x480 (16:9), 23.976 fps, 1649 kbps
Аудио поток: AAC, 128kbps, 44.1khz, 2ch

Скриншоты

MediaInfo

General
Полное имя : C:\Users\Downloads\They Came To Play.mp4
Формат : MPEG-4
Профиль формата : Base Media
Идентификатор кодека : isom (isom/iso2/avc1/mp41)
Размер файла : 1.14 GiB
Продолжительность : 1 h 31 min
Режим общего битрейта : Variable
Общий поток : 1 784 kb/s
Программа кодирования : Lavf56.30.100
Video
Идентификатор : 1
Формат : AVC
Формат/Информация : Advanced Video Codec
Профиль формата : [email protected]
Параметр CABAC формата : Yes
Параметр ReFrames формата : 4 frames
Идентификатор кодека : avc1
Идентификатор кодека/Информация : Advanced Video Coding
Продолжительность : 1 h 31 min
Битрейт : 1 649 kb/s
Ширина : 854 pixels
Высота : 480 pixels
Соотношение сторон : 16:9
Режим частоты кадров : Variable
Частота кадров : 23.976 (23976/1000) FPS
Минимальная частота кадров : 23.810 FPS
Максимальная частота кадров : 24.390 FPS
Цветовое пространство : YUV
Субдискретизация насыщенности : 4:2:0
Битовая глубина : 8 bits
Тип развёртки : Progressive
Бит/(Пиксели*Кадры) : 0.168
Размер потока : 1.05 GiB (92%)
Библиотека кодирования : x264 core 148 r2 a01e339
Настройки программы : cabac=1 / ref=4 / deblock=1:0:0 / analyse=0x3:0x113 / me=umh / subme=8 / psy=1 / psy_rd=1.00:0.00 / mixed_ref=1 / me_range=16 / chroma_me=1 / trellis=0 / 8x8dct=1 / cqm=0 / deadzone=21,11 / fast_pskip=1 / chroma_qp_offset=-2 / threads=12 / lookahead_threads=3 / sliced_threads=0 / nr=0 / decimate=1 / interlaced=0 / bluray_compat=0 / constrained_intra=0 / bframes=4 / b_pyramid=2 / b_adapt=2 / b_bias=0 / direct=3 / weightb=1 / open_gop=0 / weightp=2 / keyint=96 / keyint_min=48 / scenecut=40 / intra_refresh=0 / rc_lookahead=40 / rc=crf / mbtree=1 / crf=14.0 / qcomp=0.60 / qpmin=0 / qpmax=69 / qpstep=4 / vbv_maxrate=1800 / vbv_bufsize=1800 / crf_max=0.0 / nal_hrd=none / filler=0 / ip_ratio=1.41 / aq=1:1.00
Audio
Идентификатор : 2
Формат : AAC
Формат/Информация : Advanced Audio Codec
Профиль формата : LC
Идентификатор кодека : 40
Продолжительность : 1 h 31 min
Вид битрейта : Variable
Битрейт : 128 kb/s
Максимальный битрейт : 130 kb/s
Каналы : 2 channels
Расположение каналов : Front: L R
Частота : 44.1 kHz
Частота кадров : 43.066 FPS (1024 spf)
Метод сжатия : Lossy
Размер потока : 83.6 MiB (7%)
Default : Yes
Alternate group : 1



Ви не можете починати теми
Ви не можете відповідати на повідомлення
Ви не можете редагувати свої повідомлення
Ви не можете видаляти свої повідомлення
Ви не можете голосувати в опитуваннях
Ви не можете прикріплювати файли до повідомлень
Ви можете скачувати файли