Дмитрий Хворостовский. Концерт на Красной площади [2004, Classical, HDTVRip]


Статистика роздачі [Оновити пиров]
Розмір:  1,37 GB   |    Зареєстрований:  1 рік   |    Скачано:  0 раз

Повного джерела не було: Ніколи


Дмитрий Хворостовский. Концерт на Красной площади [2004, Classical, HDTVRip]

Дмитрий Хворостовский. Концерт на Красной площади
Страна: Россия
Жанр: Classical
Продолжительность: 01:30:55
Год выпуска: 2004
Описание: Дмитрий Хворостовский стал первым оперным исполнителем, выступившим с оркестром и хором на Красной площади в Москве: 28 моя 2004 года в ходе благотворительного концерта он исполнял советские песни военных лет, арии из опер русских и итальянских композиторов, русские романсы и неаполитанские песни. Выступление транслировалось по телевидению в более чем 30 странах.
Треклист:
01. Н. Римский-Корсаков - Шествие князей из оперы "Млада"
02. П. Чайковский - Ария Онегина из оперы "Евгений Онегин"
03. А. Бородин - Ария князя Игоря из оперы "Князь Игорь"
04. А. Рубинштейн - Эпиталама Виндекса из оперы "Нерон"
05. Дж.Верди - Ария Дон Карло из оперы "Эрнани"
06. Н. Валенте, Э. Тальяферри - Неаполитанская песня "Passione" (Страсть)
07. Ч. Биксио - "Parlami d'amore Mariu" (Девушки, спешите на свиданье!)
08. Русская народная песня - "Ух ты поле"
09. А. Гурилев, И. Макаров - "Однозвучно гремит колокольчик"
10. М. Блантер, М. Исаковский - "Катюша"
11. К. Молчанов, М. Львовский - "Вот солдаты идут"
12. Д. Покрасс, В. Лебедев-Кумач - "Москва, майская"
13. Н. Богословский, А. Агатов - "Темная ночь"
14. Я. Френкель, Р. Гамзатов - "Журавли"
15. М. Таривердиев, Р. Рождественский - "Где-то далеко"
16. В. Соловьев-Седой, М. Матусовский - "Подмосковные вечера"
17. И. Дунаевский, М. Лисянский, С. Агранян - "Моя Москва"
18. Русская народная песня - "Ах ты, ноченька"
Доп. информация:
Автор релиза -
Источник для рипа - HDTV 1080i TS - моя запись с канала Россия-1 HD - http://rutracker.org/forum/viewtopic.php?t=5483938
Сэмпл: https://yadi.sk/i/aOkOpLIW3Px52N
Рекламы нет!
Качество: HDTVRip
Контейнер: AVI
Видео кодек: XviD
Аудио кодек: AC3
Видео: XviD, 720x400 (16:9), 25.000 fps, 1961 kbps, 0.272 bit/pixel
Аудио: AC3, 48000 Гц, 2ch, 192 kbps

MediaInfo

ОбщееПолное имя                               : D:\Дмитрий.Хворостовский.Концерт.на.Красной.площади.2004.HDTVRip-ylnian.aviФормат                                   : AVIФормат/Информация                        : Audio Video InterleaveРазмер файла                             : 1,37 ГбайтПродолжительность                        : 1 ч. 30 м.Общий поток                              : 2163 Кбит/секПрограмма кодирования                    : VirtualDubMod 1.5.10.2 (build 2540/release)Библиотека кодирования                   : VirtualDubMod build 2540/release
ВидеоИдентификатор : 0Формат : MPEG-4 VisualПрофиль формата : Advanced [email protected]Настройки формата : BVOP1Параметр BVOP формата : 1Параметр QPel формата : НетПараметр GMC формата : Без точки переходаПараметр матрицы формата : Default (MPEG)Идентификатор кодека : XVIDИдентификатор кодека/Подсказка : XviDПродолжительность : 1 ч. 30 м.Битрейт : 1961 Кбит/секШирина : 720 пикселейВысота : 400 пикселейСоотношение сторон : 16:9Частота кадров : 25,000 кадров/секЦветовое пространство : YUVСубдискретизация насыщенности : 4:2:0Битовая глубина : 8 битТип развёртки : ПрогрессивнаяМетод сжатия : С потерямиБит/(Пиксели*Кадры) : 0.272Размер потока : 1,25 Гбайт (91%)Библиотека кодирования : XviD 67
АудиоИдентификатор : 1Формат : AC-3Формат/Информация : Audio Coding 3Идентификатор кодека : 2000Продолжительность : 1 ч. 30 м.Вид битрейта : ПостоянныйБитрейт : 192 Кбит/секКаналы : 2 каналаРасположение каналов : Front: L RЧастота : 48,0 КГцЧастота кадров : 31,250 кадров/сек (1536 SPF)Битовая глубина : 16 битМетод сжатия : С потерямиРазмер потока : 125 Мбайт (9%)Выравнивание : Разделение по промежуткамПродолжительность промежутка : 40 мс. (1,00 видеокадр)Время предзагрузки промежутка : 500 мс.ServiceKind/String : Complete Main



Ви не можете починати теми
Ви не можете відповідати на повідомлення
Ви не можете редагувати свої повідомлення
Ви не можете видаляти свої повідомлення
Ви не можете голосувати в опитуваннях
Ви не можете прикріплювати файли до повідомлень
Ви можете скачувати файли