Новогодний концерт Венского филармонического оркестра 2018 / Neujahrskonzert der Wiener Philarmoniker 2018 (Riccardo Muti, Wiener Philharmoniker) [2018, Classical, HDTVRip]


Статистика роздачі [Оновити пиров]
Розмір:  3,9 GB   |    Зареєстрований:  1 рік   |    Скачано:  0 раз

Повного джерела не було: Ніколи


Новогодний концерт Венского филармонического оркестра 2018 / Neujahrskonzert der Wiener Philarmoniker 2018 (Riccardo Muti, Wiener Philharmoniker) [2018, Classical, HDTVRip]

Johann Strauss Jr., Josef Strauss, Johann Strauss sen, Franz von Suppé, Alphons Czibulka - Новогодний концерт Венского филармонического оркестра 2018 / Neujahrskonzert der Wiener Philarmoniker 2018
Год выпуска: 2018
Жанр: Classical
Продолжительность: 02:37:35
Перевод: комментарии Андрея Пряхина
Дирижер : Riccardo Muti
Исполнители: Wiener Philharmoniker
Треклист:
Первое отделение
Иоганн Штраус-сын. Марш из оперетты "Цыганский барон"
Йозеф Штраус. Вальс "Венские фрески", соч. 249 (видеоряд - интерьеры Австрийской Национальной библиотеки)
Иоганн Штраус-сын. Французская полька "Смотрины", соч. 417
Иоганн Штраус-отец. Вальс Марии, соч. 212
Иоганн Штраус-отец. Галоп "Вильгельм Телль" на темы одноимённой оперы Дж. Россини, соч. 29b
Фильм "Венский модернизм. 1918-2018". Режиссёр - Георг Риха.
Второе отделение
Франц фон Зуппе. Увертюра к оперетте "Боккаччо"
Иоганн Штраус-сын. Вальс "Цветы мирта", соч. 395 (видеоряд - шедевры Венского фарфора)
Альфонс Цибулька. Гавот "Стефания", соч. 312 (видеоряд - Хофпавильон архитектора Отто Вагнера на станции Хитцинг, артисты балета)
Иоганн Штраус-сын. Быстрая полька "Вольные (волшебные) пули", соч. 326
Иоганн Штраус-сын. Вальс "Сказки Венского леса", соч. 325 (с видеорядом)
Иоганн Штраус-сын. Праздничный марш, соч. 352
Иоганн Штраус-сын. Полька-мазурка "Город и деревня", соч. 322
Иоганн Штраус-сын. Кадриль "Бал-маскарад" на темы одноимённой оперы Дж. Верди, соч. 272
Иоганн Штраус-сын. Вальс "Розы с юга", соч. 388 (видеоряд - балет на фоне замка Эккартзау)
Йозеф Штраус. Быстрая полька "Отправлено", соч. 240
Иоганн Штраус-сын. Быстрая полька "Под гром и молнии" ("В сильную грозу"), соч. 324
Иоганн Штраус-сын. Вальс "На прекрасном голубом Дунае", соч. 314 (видеоряд - картины Дуная)
Иоганн Штраус-отец. Радецки-марш, соч. 228
Источник:Рип раздачи http://rutracker.org/forum/viewtopic.php?t=5503533, спасибо lesik689 за составление треклиста
Описание: Новогодний концерт в Вене (нем. Das Neujahrskonzert der Wiener Philharmoniker) — традиционный ежегодный концерт Венского филармонического оркестра 1 января в столице Австрии. Концерты, которые Венский филармонический оркестр дает ежегодно, по праву считаются одним из крупнейших мировых музыкальных событий года. К этому концерту знаменитый симфонический оркестр долго готовится: приглашает крупнейших дирижеров, подбирает репертуар, в который по традиции неизменно включаются произведения знаменитых венских композиторов из семьи Штраусов. Первый Новогодний концерт в здании Венского общества друзей музыки состоялся 31 декабря 1939 года, однако свое официальное название «Новогодний концерт» он получил лишь в 1946 году.
Качество видео: HDTVRip
Формат/Контейнер: MKV
Видео кодек: H.264
Аудио кодек: MP2
Видео: AVC, 960x540 (16:9), 25.000 fps, 2897 Kbps
Аудио#1: MP2, 48.0 KHz, 2 ch, 384 Kbps
Аудио#2: MP2, 48.0 KHz, 2 ch mono, 192 Kbps, комментарии Андрея Пряхина

MediaInfo

Format                         : MatroskaFormat version                 : Version 2File size                      : 3.90 GiBDuration                       : 2h 37mnOverall bit rate               : 3 544 KbpsEncoded date                   : UTC 2018-01-09 22:01:44Writing application            : mkvmerge v5.8.0 ('No Sleep / Pillow') built on Sep  2 2012 15:37:04Writing library                : libebml v1.2.3 + libmatroska v1.3.0
VideoID : 1Format : AVCFormat/Info : Advanced Video CodecFormat profile : [email protected] settings, CABAC : YesFormat settings, ReFrames : 8 framesFormat settings, GOP : M=2, N=24Codec ID : V_MPEG4/ISO/AVCDuration : 2h 37mnBit rate : 2 897 KbpsWidth : 960 pixelsHeight : 540 pixelsDisplay aspect ratio : 16:9Frame rate mode : ConstantFrame rate : 25.000 fpsColor space : YUVChroma subsampling : 4:2:0Bit depth : 8 bitsScan type : ProgressiveBits/(Pixel*Frame) : 0.224Stream size : 3.19 GiB (82%)Default : NoForced : No
Audio #1ID : 2Format : MPEG AudioFormat version : Version 1Format profile : Layer 2Codec ID : A_MPEG/L2Codec ID/Hint : MP2Duration : 2h 37mnBit rate mode : ConstantBit rate : 384 KbpsChannel(s) : 2 channelsSampling rate : 48.0 KHzCompression mode : LossyStream size : 433 MiB (11%)Default : YesForced : No
Audio #2ID : 3Format : MPEG AudioFormat version : Version 1Format profile : Layer 2Codec ID : A_MPEG/L2Codec ID/Hint : MP2Duration : 2h 37mnBit rate mode : ConstantBit rate : 192 KbpsChannel(s) : 2 channelsSampling rate : 48.0 KHzCompression mode : LossyStream size : 216 MiB (5%)Language : RussianDefault : NoForced : No

Скриншоты




Ви не можете починати теми
Ви не можете відповідати на повідомлення
Ви не можете редагувати свої повідомлення
Ви не можете видаляти свої повідомлення
Ви не можете голосувати в опитуваннях
Ви не можете прикріплювати файли до повідомлень
Ви можете скачувати файли