Новогодний концерт Венского филармонического оркестра 2018 (Риккардо Мути) / Neujahrskonzert der Wiener Philarmoniker 2018 (Riccardo Muti) [2018, Classical, HDTVRip 1080p]


Статистика роздачі [Оновити пиров]
Розмір:  18,06 GB   |    Зареєстрований:  1 рік   |    Скачано:  0 раз

Повного джерела не було: Ніколи


Новогодний концерт Венского филармонического оркестра 2018 (Риккардо Мути) / Neujahrskonzert der Wiener Philarmoniker 2018 (Riccardo Muti) [2018, Classical, HDTVRip 1080p]

Новогодний концерт Венского филармонического оркестра - 2018 / Neujahrskonzert 2018 - Wiener Philharmoniker
Год выпуска: 2018
Лейбл: ORF
Страна: Австрия
Жанр: Classical, Concert
Продолжительность: 02:37:36
Язык: Немецкий
Перевод: Русский (Андрей Пряхин)
Режиссер: Хеннинг Кастен (Henning Kasten)
Исполнители: Венский Филармонический Оркестр
Дирижёр: Риккардо Мути (Riccardo Muti)
Описание: Прямая трансляция Новогоднего концерта Венского филармонического оркестра из Золотого зала Musikverein. Популярный концерт Венского филармонического оркестра, который традиционно проходит в Вене в первый день наступившего нового года и транслируется в 90 стран мира, на этот раз проведёт итальянский дирижёр Риккардо Мути. Музыкальная основа программы - произведения семьи Штраусов. Танцевальные номера представят солисты Венского государственного балета.
Концерт сопровождают видеокартины, а в антракте будет показан фильм, специально создаваемый для каждого Новогоднего концерта.
Качество видео: HDTVRip (1080p)
Формат: MKV
Видео: MPEG-4 AVC, 1920x1080 (16:9), 25.000 fps, 13.6 Mbps
Аудио #1: Русский, Dolby AC3, 48000 Гц, 224 Кбит/с, 2 канала - А. Пряхин (с комментариями)
Аудио #2: Немецкий, Dolby AC3, 48000 Гц, 384 Кбит/с, 2 канала - Оригинал
Аудио #3: Немецкий, Dolby AC3, 48000 Гц, 384 Кбит/с, 2 канала - Оригинал (с комментариями)
Аудио #4: Немецкий, DTS, 48000 Гц, 768 Кбит/с, 5 каналов - Оригинал
Аудио #5: Немецкий, DTS, 48000 Гц, 768 Кбит/с, 5 каналов - Оригинал (с комментариями)
Автор рипа - ivandubskoj

Треклист

Часть 1
Johann Strauss, Jr.
Entrance March from the Operetta "The Gypsy Baron"
Josef Strauss
Wiener Fresken (Viennese Frescos), Waltz, op. 249
Johann Strauss, Jr.
Brautschau (Bride Shopping), Polka, op. 417
Leichtes Blut (Light of Heart), Fast Polka, op. 319
Johann Strauss, sen.
Marienwalzer (Maria Waltz), op. 212
William Tell Galop, op. 29b
Intermission Feature - Wiener Moderne 1918-2018 - музыкальный фильм
Часть 2
Franz von Suppé
Overture to "Boccaccio"
Johann Strauss, Jr.
Myrthenblüten (Myrtle Blossoms), Waltz, op. 395
Alphons Czibulka
Stephanie Gavotte, op. 312
Johann Strauss, Jr.
Freikugeln (Magic Bullets), Fast Polka, op. 326
Tales from the Vienna Woods, Waltz, op. 325
Fest-Marsch (Festival March), op. 452
Stadt und Land (Town and Country), Polka Mazurka, op. 322
Un ballo in maschera (Masked Ball), Quadrille, op. 272
Rosen aus dem Süden (Roses from the South), Waltz, op. 388
Josef Strauss
Eingesendet (Letters to the Editor), Fast Polka, op. 240
The zither solo in the waltz "Tales from the Vienna Woods" is performed by Barbara Laister-Ebner.

MediaInfo

General
Unique ID : 236877349402342465498622094421240230129 (0xB234EB046A0734619C4D2EEE29EEB0F1)
Complete name : Neujahrskonzert.2018.HDTVRip.1080p.mkv
Format : Matroska
File size : 18.1 GiB
Duration : 2h 37mn
Overall bit rate : 16.4 Mbps
Encoded date : UTC 2018-01-10 21:35:33
Writing application : mkvmerge v7.9.0 ('Birds') 64bit
Writing library : libebml v1.3.1 + libmatroska v1.4.2
Video
ID : 1
Format : AVC
Format/Info : Advanced Video Codec
Format profile : [email protected]
Format settings, CABAC : Yes
Format settings, ReFrames : 4 frames
Codec ID : V_MPEG4/ISO/AVC
Duration : 2h 37mn
Bit rate : 13.6 Mbps
Width : 1 920 pixels
Height : 1 080 pixels
Display aspect ratio : 16:9
Frame rate : 25.000 fps
Color space : YUV
Chroma subsampling : 4:2:0
Bit depth : 8 bits
Scan type : Progressive
Bits/(Pixel*Frame) : 0.262
Stream size : 14.9 GiB (83%)
Title : Neujahrskonzert der Wiener Philharmoniker (2018) HDTVRip 1080p by ivandusbkoj
Language : German
Writing library : x264 core 148 r2762 90a61ec
Encoding settings : cabac=1 / ref=2 / deblock=1:-3:-3 / analyse=0x3:0x113 / me=umh / subme=11 / psy=1 / fade_compensate=0.00 / psy_rd=1.00:0.00 / mixed_ref=1 / me_range=32 / chroma_me=1 / trellis=2 / 8x8dct=1 / cqm=0 / deadzone=21,11 / fast_pskip=0 / chroma_qp_offset=-2 / threads=12 / lookahead_threads=3 / sliced_threads=0 / nr=0 / decimate=1 / interlaced=0 / bluray_compat=0 / constrained_intra=0 / bframes=8 / b_pyramid=2 / b_adapt=2 / b_bias=0 / direct=3 / weightb=1 / open_gop=0 / weightp=2 / keyint=250 / keyint_min=23 / scenecut=40 / intra_refresh=0 / rc_lookahead=40 / rc=crf / mbtree=0 / crf=18.0000 / qcomp=0.60 / qpmin=0 / qpmax=69 / qpstep=4 / vbv_maxrate=50000 / vbv_bufsize=62500 / crf_max=0.0 / nal_hrd=none / ip_ratio=1.40 / pb_ratio=1.30 / aq=1:0.80
Audio #1
ID : 2
Format : AC-3
Format/Info : Audio Coding 3
Mode extension : CM (complete main)
Codec ID : A_AC3
Duration : 2h 37mn
Bit rate mode : Constant
Bit rate : 224 Kbps
Channel(s) : 2 channels
Channel positions : Front: L R
Sampling rate : 48.0 KHz
Bit depth : 16 bits
Compression mode : Lossy
Stream size : 253 MiB (1%)
Title : A. Пpяxин [Commentary]
Language : Russian
Audio #2
ID : 3
Format : AC-3
Format/Info : Audio Coding 3
Mode extension : CM (complete main)
Codec ID : A_AC3
Duration : 2h 37mn
Bit rate mode : Constant
Bit rate : 384 Kbps
Channel(s) : 2 channels
Channel positions : Front: L R
Sampling rate : 48.0 KHz
Bit depth : 16 bits
Compression mode : Lossy
Stream size : 433 MiB (2%)
Title : Original
Language : German
Audio #3
ID : 4
Format : AC-3
Format/Info : Audio Coding 3
Mode extension : CM (complete main)
Codec ID : A_AC3
Duration : 2h 37mn
Bit rate mode : Constant
Bit rate : 384 Kbps
Channel(s) : 2 channels
Channel positions : Front: L R
Sampling rate : 48.0 KHz
Bit depth : 16 bits
Compression mode : Lossy
Stream size : 433 MiB (2%)
Title : Original [Commentary]
Language : German
Audio #4
ID : 5
Format : DTS
Format/Info : Digital Theater Systems
Codec ID : A_DTS
Duration : 2h 37mn
Bit rate mode : Constant
Bit rate : 755 Kbps
Channel(s) : 5 channels
Channel positions : Front: L C R, Side: L R
Sampling rate : 48.0 KHz
Bit depth : 24 bits
Compression mode : Lossy
Stream size : 851 MiB (5%)
Title : Original
Language : German
Audio #5
ID : 6
Format : DTS
Format/Info : Digital Theater Systems
Codec ID : A_DTS
Duration : 2h 37mn
Bit rate mode : Constant
Bit rate : 755 Kbps
Channel(s) : 5 channels
Channel positions : Front: L C R, Side: L R
Sampling rate : 48.0 KHz
Bit depth : 24 bits
Compression mode : Lossy
Stream size : 851 MiB (5%)
Title : Original [Commentary]
Language : German

Скриншоты




Ви не можете починати теми
Ви не можете відповідати на повідомлення
Ви не можете редагувати свої повідомлення
Ви не можете видаляти свої повідомлення
Ви не можете голосувати в опитуваннях
Ви не можете прикріплювати файли до повідомлень
Ви можете скачувати файли