[TR24][SM][OF] Operatic Choruses (Bizet, Offenbach, Gounod, Wagner, Thomas, Mascagini, Strauss) - The Robert Shaw Chorale & RCA Victor Symphony Orchestra - 1960 (Classical)


Статистика роздачі [Оновити пиров]
Розмір:  1 GB   |    Зареєстрований:  1 рік   |    Скачано:  0 раз

Повного джерела не було: Ніколи

by Паночка ®
09-Бер-2018 20:17


[TR24][SM][OF] Operatic Choruses (Bizet, Offenbach, Gounod, Wagner, Thomas, Mascagini, Strauss) - The Robert Shaw Chorale & RCA Victor Symphony Orchestra - 1960 (Classical)

·
·
·
·
LIVING STEREO
A "New Orthophonic" Hi Fidelity Recording
Жанр: Opera
Носитель: Official Digital Download
Год издания: 1960 © RCA Victor Red Seal
Номер по каталогу: LSC-2416
Год переиздания: 2016 © Sony Music Entertainment
Продолжительность: 46:02
Наличие сканов альбома: cover art
Контейнер: FLAC (*.flac)
Разрядность: 24/96
Формат: tracks
Количество каналов: 2.0
Источник: qobuz.com
Pелизер: WEB (thanks to the original customer)

Треклист

Georges Bizet
01 Carmen Act IV : Les Voici! Les Voici! 04:03
Jacques Offenbach
02 Les Contes d'Hoffmann Act II : Presentation of Olympia 01:23
Charles Gounod
03 Faust Act IV : Déposons les armes (Soldiers' Chorus) 04:04
Giuseppe Verdi
04 Nabucco Act III : Va', pensiero (Chorus of the Hebrew Slaves) 04:55
Giuseppe Verdi
05 Otello Act II : Dove guardi splendono raggi 05:08
Giuseppe Verdi
06 Il Trovatore Act II : Vedi! le fosche notturne spoglie (Anvil Chorus) 02:50
Richard Wagner
07 Lohengrin WWV 75 Act III : Treulich geführt ziehet dahin (Bridal Chorus) 04:57
Giuseppe Verdi
08 Rigoletto Act I : Zitti, zitti moviamo a vendetta 01:43
Richard Wagner
09 Die Meistersinger von Nürnberg WWV 96 Act III : Wach auf! 02:52
Ambroise Thomas
10 Mignon Act III : Ah! Au souffle léger du vent (Barcarolle) 02:55
Pietro Mascagni
11 Cavalleria Rusticana : Ah! Gli aranci olezzano 07:14
Johann Strauss Jr.
12 Die Fledermaus Act II : Brüderlein und Schwesterlein 03:58

Dynamic Range Meter

foobar2000 1.3.10 / Dynamic Range Meter 1.1.1log date: 2017-08-25 21:52:03
--------------------------------------------------------------------------------Analyzed: Robert Shaw / The Robert Shaw Chorale - Operatic Choruses--------------------------------------------------------------------------------
DR Peak RMS Duration Track--------------------------------------------------------------------------------DR11 -0.87 dB -15.34 dB 4:03 01-Carmen, Act IV: Les Voici! Les Voici!DR13 -2.98 dB -22.40 dB 1:23 02-Les Contes d'Hoffmann, Act II: Presentation of OlympiaDR10 -2.29 dB -17.06 dB 4:04 03-Faust, Act IV: Déposons les armes (Soldiers' Chorus)DR10 -3.12 dB -19.19 dB 4:55 04-Nabucco, Act III: Va', pensiero (Chorus of the Hebrew Slaves)DR12 -4.46 dB -23.22 dB 5:08 05-Otello, Act II: Dove guardi splendono raggiDR10 -0.20 dB -14.98 dB 2:50 06-Il Trovatore, Act II: Vedi! le fosche notturne spoglie (Anvil Chorus)DR13 -3.04 dB -21.35 dB 4:57 07-Lohengrin, WWV 75, Act III: Treulich geführt ziehet dahin (Bridal Chorus)DR14 -4.10 dB -25.33 dB 1:43 08-Rigoletto, Act I: Zitti, zitti moviamo a vendettaDR9 -2.36 dB -16.57 dB 2:52 09-Die Meistersinger von Nürnberg, WWV 96, Act III: Wach auf!DR14 -5.32 dB -25.95 dB 2:55 10-Mignon, Act III: Ah! Au souffle léger du vent (Barcarolle)DR12 -4.05 dB -21.82 dB 7:14 11-Cavalleria Rusticana: Ah! Gli aranci olezzanoDR11 -2.38 dB -19.98 dB 3:58 12-Die Fledermaus, Act II: Brüderlein und Schwesterlein--------------------------------------------------------------------------------
Number of tracks: 12Official DR value: DR12
Samplerate: 96000 HzChannels: 2Bits per sample: 24Bitrate: 3086 kbpsCodec: FLAC================================================================================



Ви не можете починати теми
Ви не можете відповідати на повідомлення
Ви не можете редагувати свої повідомлення
Ви не можете видаляти свої повідомлення
Ви не можете голосувати в опитуваннях
Ви не можете прикріплювати файли до повідомлень
Ви можете скачувати файли