[TR24][BR] Mozart - Requiem in D Minor (Karajan Memoria Concert) (Claudio Abbado, Berliner Philharmoniker, Swedish Radio Choir, Matilla, Mingardo, Schade, Terfel, Harnisch) - 1999/2015 (Classical, Choral, Vocal, Orchestral)


Статистика роздачі [Оновити пиров]
Розмір:  447 MB   |    Зареєстрований:  1 рік   |    Скачано:  0 раз

Повного джерела не було: Ніколи

by Паночка ®
09-Бер-2018 20:17


[TR24][BR] Mozart - Requiem in D Minor (Karajan Memoria Concert) (Claudio Abbado, Berliner Philharmoniker, Swedish Radio Choir, Matilla, Mingardo, Schade, Terfel, Harnisch) - 1999/2015 (Classical, Choral, Vocal, Orchestral)

Claudio Abbado, Berliner Philharmoniker, Swedish Radio Choir
Mozart - Requiem in D Minor KV 626
(Karajan Memoria Concert)
- Формат записи/Источник записи: [BR][TR24]
Наличие водяных знаков: Нет
Год издания/переиздания диска: 1999/2015
Жанр: Classical, Choral, Vocal, Orchestral
Издатель (лейбл): Deutsche Grammophon
Продолжительность: 01:00:32
Наличие сканов в содержимом раздачи: Только обложка альбома
Треклист:
01] (Opening)
02] Betracht dies Herz (Sopran) from Grabmusik KV 42 (35a)
03] Laudate Dominum (Sopran, Chor) from Vesperae solennes de confessore KV339
04] Requiem in D Minor, for soloists, chorus, and orchestra, K. 626
i. INTROITUS: Requiem aeternam (Chor, Sopran)
05] ii. KYRIE (Chore)
06] iii. SEQUENTIA: 1. Dies irae (Chor)
07] 2. Tuba mirum (Soli)
08] 3. Rex tremendae (Chor)
09] 4. Recordare (Soli)
10] 5. Confutatis (Chor)
11] 6. Lacrimosa (Chor)
12] iv.OFFERTORIUM: 1.Domine Jesu (Chor, Soli)
13] 2. Hostias (Chor)
14] v.SANCTUS (Chor)
15] vi.BENEDICTUS (Chor, Soli)
16] vii.AGNUS DEI (Chore)
17] viii.COMMUNIO: Lux aeterna (Chor, Sopran)-Оркестр: Berliner Philharmoniker
Композитор: Wolfgang Amadeus Mozart (1756-1791)
Дирижер: Claudio Abbado
Состав: Karita Mattila (soprano - Requiem), Sara Mingardo (contralto), Michael Schade (tenor), Bryn Terfel (bass baritone), Rachel Harnisch (soprano - tracks 2 & 3), Swedish Radio Choir, Kay Johannsen (organ)-Доп. информация: Recorded live from Salzburg Cathedral, 16 July 1999.
Engineer [Balance Engineer] – Klaus Hiemann
Engineer [Recording Engineers] – Jürgen Bulgrin, Reinhard Lagemann, Wolf-Dieter Karwatky
Producer – Christopher Alder
В 16 августа1999 году программа была издана на CD (Deutsche Grammophon ‎– 463 181-2), оформление которого частично прилагается. На CD треки 2 и 3 перенесены в заключение альбома, сокращены паузы между частями, 1й трек отстутствует.
Источник (релизер): аудио извлечено из официального BD-Контейнер: FLAC (*.flac)
Тип рипа: tracks
Разрядность: 24/48
Формат: PCM
Количество каналов: 2.0

Лог DR

foobar2000 1.3.13 / Замер динамического диапазона (DR) 1.1.1Дата отчёта:  2017-12-19 15:41:35
--------------------------------------------------------------------------------Анализ: Claudio Abbado, Berliner Philharmoniker, Swedish Radio Choir / Mozart - Requiem K. 626 (Karajan Memoria Concert)--------------------------------------------------------------------------------
DR Пики RMS Продолжительность трека--------------------------------------------------------------------------------DR10 -21.08 дБ -41.58 дБ 0:43 01-(Opening)DR13 -7.79 дБ -26.20 дБ 4:39 02-Betracht dies Herz (Sopran) from Grabmusik KV 42 (35a)DR13 -6.15 дБ -25.88 дБ 6:13 03-Laudate Dominum (Sopran, Chor) from Vesperae solennes de confessore KV339DR12 -1.00 дБ -17.34 дБ 2:25 05-ii. KYRIE (Chore)DR12 -0.57 дБ -15.73 дБ 2:00 06-iii. SEQUENTIA: 1. Dies irae (Chor)DR14 -6.53 дБ -25.85 дБ 3:24 07-2. Tuba mirum (Soli)DR13 -1.16 дБ -18.35 дБ 1:49 08-3. Rex tremendae (Chor)DR13 -6.30 дБ -24.24 дБ 5:07 09-4. Recordare (Soli)DR12 -4.59 дБ -23.28 дБ 2:32 10-5. Confutatis (Chor)DR12 -0.37 дБ -18.32 дБ 2:53 11-6. Lacrimosa (Chor)DR12 -1.34 дБ -18.18 дБ 3:37 12-iv.OFFERTORIUM: 1.Domine Jesu (Chor, Soli)DR12 -1.81 дБ -18.86 дБ 3:44 13-2. Hostias (Chor)DR11 -0.27 дБ -14.08 дБ 2:10 14-v.SANCTUS (Chor)DR15 -0.39 дБ -21.06 дБ 5:18 15-vi.BENEDICTUS (Chor, Soli)DR12 -1.73 дБ -20.31 дБ 3:33 16-vii.AGNUS DEI (Chore)DR12 -0.30 дБ -17.26 дБ 5:51 17-viii.COMMUNIO: Lux aeterna (Chor, Sopran)--------------------------------------------------------------------------------
Количество треков: 16Реальные значения DR: DR12
Частота: 48000 ГцКаналов: 2Разрядность: 24Битрейт: 1086 кбит/сКодек: FLAC================================================================================

Об альбоме (сборнике)

On July 16, 1999, the tenth anniversary of the death of Herbert von Karajan, the Berliner Philharmoniker paid tribute to their late maestro in his home town of Salzburg. In a live shooting from the imposing Salzburg Cathedral, Claudio Abbado conducted an all- Mozart programme, honouring his predecessor both by the careful selection of the music and the singers. The Berliner Philharmoniker, conducted by Claudio Abbado, performed Mozart's Requiem in D minor, KV 626, among other works. Soprano Rachel Harnisch appeared as the soloist on the two complementing arias Betrachte dies mein Herz und frage mich and Laudate Dominum Featuring soprano Karita Mattila, contralto Sara Mingardo, tenor Michael Schade and bass baritone Bryn Terfel as soloists of the Requiem. A performance that in every respect met Karajan's own high artistic standards. Lovingly restored and carefully brought to HD, this unique performance of the Berliner Philharmoniker at Salzburg Cathedral is now finally available on Blu-ray Disc.



Ви не можете починати теми
Ви не можете відповідати на повідомлення
Ви не можете редагувати свої повідомлення
Ви не можете видаляти свої повідомлення
Ви не можете голосувати в опитуваннях
Ви не можете прикріплювати файли до повідомлень
Ви можете скачувати файли