[TR24][SM][OF] New Highlights from "Rubinstein at Carnegie Hall" - Arthur Rubinstein - 1961/2011 (Classical)


Статистика роздачі [Оновити пиров]
Розмір:  2,09 GB   |    Зареєстрований:  1 рік   |    Скачано:  0 раз

Повного джерела не було: Ніколи

by Паночка ®
09-Бер-2018 20:17


[TR24][SM][OF] New Highlights from "Rubinstein at Carnegie Hall" - Arthur Rubinstein - 1961/2011 (Classical)

·
·

1961-2011
50th Anniversary
Special Release
Жанр: Keyboard
Носитель: Official Digital Download
Издатель: RCA Red Seal
Год выпуска: 2016 © Sony Music Entertainment
Номер по каталогу: G010003492116G
Продолжительность: 03:42:45
Наличие сканов в содержимом раздачи: cover art
Контейнер: FLAC (*.flac)
Разрядность: 24/44,1
Количество каналов: 2.0
Формат: tracks
Источник: HDtracks
Pелизер: WEB (thanks to the original customer)

Треклист

1

Claude Debussy
05:28 01-L'Isle joyeuse
04:15 02-La plus que lente
03:17 03-No. 8 Ondine from Preludes, Book II
Isaac Albéniz
04:27 04-Triana
Manuel de Falla
02:11 05-No. 11 Dance of Terror from El amour brujo
03:18 06-Dance of the Miller's wife from The Three-Cornered Hat
Enrique Granados
05:12 07-The Maiden and the Nightingale
Franz Liszt
11:33 08-No. 7 Funerailles from Harmonies Poetique et Religieuses
03:16 09-Valse oubliée, No. 1
09:58 10-Hungarian Rhapsody No. 12 in C-Sharp Minor, S. 244 / 12
Alexander Scriabin
04:38 11-Nocturne for the Left-hand alone in D-flat, Op. 9, No. 2
Igor Stravinsky
Three Scenes from Petrouchka
02:38 12 Russian Dance
04:11 13 Petrouchka's Cell
08:02 14 The Shrove-tide Fair

2

Johann Sebastian Bach
13:10 15-Chaconne from Partita No. 2 in D Minor, BWV 1004 for Solo Violin
Johannes Brahms
Sonata No. 3 Op. 5 in F Minor
08:26 16 Allegro maestoso
10:18 17 Andante espressivo
04:06 18 Scherzo: Allegro energico
03:04 19 Andante molto
07:19 20 Allegro moderato ma rubato
04:49 21-Intermezzo, Op. 117, No. 2 in B-Flat Minor
Intermezzo Op. 118
05:04 22 No. 2 in A
05:18 23 No. 6 in E-Flat Minor
Frédéric Chopin
02:49 24-Mazurka in D, Op. 33, No. 2
06:32 25-Nocturne No. 8 in D-Flat Major, Op. 27, No. 2
Franz Schubert
05:47 26-Impromptu No. 4 in A-flat, D. 899, Op. 90, No. 4

3

Frédéric Chopin
Sonata No. 2 in B-Flat Minor Op. 35
05:31 27 I. Grave
06:38 28 II. Scherzo
08:36 29 III. Marche funèbre
01:37 30 IV. Finale - Presto
02:06 31-Prelude No. 4 in E Minor, Op. 28, No. 4
02:00 32-Prelude No. 8 in F-Sharp Minor, Op. 28, No. 8
04:58 33-Prelude No. 15 in D-Flat Major, Op. 28, No. 15 "Raindrop"
01:38 34-Prelude No. 21 in B-Flat Major, Op. 28, No. 21
01:24 35-Prelude No. 23 in F Major, Op. 28, No. 23
02:31 36-Prelude No. 24 in D Minor, Op. 28, No. 24
04:42 37-Berceuse in D-Flat Major, Op. 57
12:41 38-Polonaise-Fantasie in A-Flat Major, Op. 61
05:29 39-Fantasie-lmpromptu in C-Sharp Minor, Op. 66
01:43 40-Etude No. 14 in F Minor, Op. 25, No. 2
01:54 41-Etude No. 15 in F Major, Op. 25, No. 3
02:53 42-Etude No. 12 in C Minor, Op. 10, No. 12 ''Revolutionary''
07:18 43-Polonaise No. 6 in A-Flat Major, Op. 53 ''Heroic''

Dynamic Range Meter

foobar2000 1.3.10 / Dynamic Range Meter 1.1.1
log date: 2016-11-23 04:06:13
--------------------------------------------------------------------------------
Analyzed: Arthur Rubinstein / New Highlights from "Rubinstein at Carnegie Hall" - Recorded During the Historic 10 Recitals of 1961
--------------------------------------------------------------------------------
DR Peak RMS Duration Track
--------------------------------------------------------------------------------
DR10 -0.14 dB -15.49 dB 5:28 01-L'Isle joyeuse
DR12 -3.39 dB -21.17 dB 4:15 02-La plus que lente
DR14 -1.85 dB -22.82 dB 3:17 03-No. 8 Ondine from Preludes, Book II
DR10 -1.73 dB -16.41 dB 4:27 04-Triana
DR11 -3.08 dB -18.51 dB 2:11 05-No. 11 Dance of Terror from El amour brujo
DR11 -2.16 dB -17.16 dB 3:18 06-Dance of the Miller's wife from The Three-Cornered Hat
DR12 -2.32 dB -20.60 dB 5:12 07-The Maiden and the Nightingale
DR11 -1.25 dB -19.36 dB 11:33 08-No. 7 Funerailles from Harmonies Poetique et Religieuses
DR10 -2.99 dB -18.86 dB 3:16 09-Valse oubliée, No. 1
DR11 -0.51 dB -16.54 dB 9:58 10-Hungarian Rhapsody No. 12 in C-Sharp Minor, S. 244 / 12
DR13 -1.12 dB -20.73 dB 4:38 11-Nocturne for the Left-hand alone in D-flat, Op. 9, No. 2
DR11 -0.13 dB -14.40 dB 2:38 12-Three Scenes from Petrouchka: Russian Dance
DR11 -1.31 dB -16.72 dB 4:11 13-Three Scenes from Petrouchka: Petrouchka's Cell
DR11 -0.19 dB -14.29 dB 8:02 14-Three Scenes from Petrouchka: The Shrove-tide Fair
DR10 -2.27 dB -16.76 dB 13:10 15-Chaconne from Partita No. 2 in D Minor, BWV 1004 for Solo Violin
DR11 -0.75 dB -16.97 dB 8:26 16-Sonata No. 3, Op. 5 in F Minor: Allegro maestoso
DR14 -0.89 dB -21.48 dB 10:18 17-Sonata No. 3, Op. 5 in F Minor: Andante espressivo
DR11 -0.22 dB -15.06 dB 4:06 18-Sonata No. 3, Op. 5 in F Minor: Scherzo: Allegro energico
DR13 -1.83 dB -21.32 dB 3:04 19-Sonata No. 3, Op. 5 in F Minor: Intermezzo: Andante molto
DR10 -1.02 dB -15.55 dB 7:19 20-Sonata No. 3, Op. 5 in F Minor: Finale: Allegro moderato ma rubato
DR12 -3.70 dB -21.87 dB 4:49 21-Intermezzo, Op. 117, No. 2 in B-Flat Minor
DR12 -4.50 dB -22.81 dB 5:04 22-Intermezzo Op. 118, No. 2, in A
DR12 -0.57 dB -19.03 dB 5:18 23-Intermezzo Op. 118, No. 6 in E-Flat Minor
DR11 -2.33 dB -18.48 dB 2:49 24-Mazurka in D, Op. 33, No. 2
DR13 -4.84 dB -23.66 dB 6:32 25-Nocturne No. 8 in D-Flat Major, Op. 27, No. 2
DR11 -1.30 dB -18.67 dB 5:47 26-Impromptu No. 4 in A-flat, D. 899, Op. 90, No. 4
DR11 -0.26 dB -15.53 dB 5:31 27-Sonata No. 2 in B-Flat Minor, Op. 35: I. Grave
DR10 -1.36 dB -17.77 dB 6:38 28-Sonata No. 2 in B-Flat Minor, Op. 35: II. Scherzo
DR13 -1.94 dB -21.68 dB 8:36 29-Sonata No. 2 in B-Flat Minor, Op. 35: III. Marche funèbre
DR14 -2.55 dB -20.15 dB 1:37 30-Sonata No. 2 in B-Flat Minor, Op. 35: IV. Finale - Presto
DR13 -3.98 dB -24.15 dB 2:06 31-Prelude No. 4 in E Minor, Op. 28, No. 4
DR10 -5.13 dB -18.36 dB 2:00 32-Prelude No. 8 in F-Sharp Minor, Op. 28, No. 8
DR13 -2.22 dB -21.22 dB 4:58 33-Prelude No. 15 in D-Flat Major, Op. 28, No. 15 "Raindrop"
DR9 -3.28 dB -18.38 dB 1:38 34-Prelude No. 21 in B-Flat Major, Op. 28, No. 21
DR11 -9.73 dB -27.57 dB 1:24 35-Prelude No. 23 in F Major, Op. 28, No. 23
DR10 -1.85 dB -16.13 dB 2:31 36-Prelude No. 24 in D Minor, Op. 28, No. 24
DR19 -3.66 dB -29.65 dB 4:42 37-Berceuse in D-Flat Major, Op. 57
DR11 -0.50 dB -18.28 dB 12:41 38-Polonaise-Fantasie in A-Flat Major, Op. 61
DR11 -1.89 dB -19.57 dB 5:29 39-Fantasie-lmpromptu in C-Sharp Minor, Op. 66
DR10 -7.65 dB -21.98 dB 1:43 40-Etude No. 14 in F Minor, Op. 25, No. 2
DR10 -6.06 dB -20.62 dB 1:54 41-Etude No. 15 in F Major, Op. 25, No. 3
DR11 -3.65 dB -17.28 dB 2:53 42-Etude No. 12 in C Minor, Op. 10, No. 12 ''Revolutionary''
DR10 -2.20 dB -16.06 dB 7:18 43-Polonaise No. 6 in A-Flat Major, Op. 53 ''Heroic''
--------------------------------------------------------------------------------
Number of tracks: 43
Official DR value: DR12
Samplerate: 44100 Hz
Channels: 2
Bits per sample: 24
Bitrate: 1369 kbps
Codec: FLAC
================================================================================[/pre]



Ви не можете починати теми
Ви не можете відповідати на повідомлення
Ви не можете редагувати свої повідомлення
Ви не можете видаляти свої повідомлення
Ви не можете голосувати в опитуваннях
Ви не можете прикріплювати файли до повідомлень
Ви можете скачувати файли