[TR24][SM][OF] Beethoven & Brahms - Triple & Double Concertos - Geza Anda, Janos Starker, Pierre Fournier, Wolfgang Schneiderhan, Radio-Symphonie-Orchester Berlin & Ferenc Fricsay - 1961 & 1962 (Classical)


Статистика роздачі [Оновити пиров]
Розмір:  1,38 GB   |    Зареєстрований:  1 рік   |    Скачано:  0 раз

Повного джерела не було: Ніколи

by Паночка ®
09-Бер-2018 20:17


[TR24][SM][OF] Beethoven & Brahms - Triple & Double Concertos - Geza Anda, Janos Starker, Pierre Fournier, Wolfgang Schneiderhan, Radio-Symphonie-Orchester Berlin & Ferenc Fricsay - 1961 & 1962 (Classical)

·
·
·
·
Ludwig van Beethoven (1770 - 1827)
Johannes Brahms (1833 - 1897)
Жанр: Concerto
Носитель: Official Digital Download
Год издания: 1961 & 1962
Год переиздания: 2016 © Deutsche Grammophon
Номер по каталогу: 479 6351
Продолжительность: 01:11:24
Наличие сканов в содержимом раздачи: artwork
Контейнер: FLAC (*.flac)
Разрядность: 24/96
Количество каналов: 2.0
Формат: tracks
Источник: Presto Classical
Pелизер: WEB (thanks to the original customer)

Треклист

Ludwig van Beethoven
Concerto for Piano, Violin & Cello in C major Op. 56
01 I. Allegro 18:19
02 II. Largo 05:03
03 III. Rondo alla Polacca 13:43
Johannes Brahms
Concerto for Violin & Cello in A minor Op. 102 *
04 I. Allegro 16:54
05 II. Andante 08:09
06 III. Vivace non troppo - Poco meno allegro - Tempo I 09:16

Исполнители

Géza Anda · piano
Pierre Fournier · cello
Janos Starker · cello *
Wolfgang Schneiderhan · violin
Radio-Symphonie-Orchester Berlin
Ferenc Fricsay

Dynamic Range Meter

foobar2000 1.3.10 / Dynamic Range Meter 1.1.1log date: 2016-11-17 20:49:46
--------------------------------------------------------------------------------Analyzed: Géza Anda, Wolfgang Schneiderhan, Pierre Fournier, Radio-Symphonie-Orchester Berlin, Ferenc Fricsay / Beethoven: Triple Concerto / Brahms: Double Concerto--------------------------------------------------------------------------------
DR Peak RMS Duration Track--------------------------------------------------------------------------------DR11 -2.10 dB -17.54 dB 18:19 01-Concerto For Piano, Violin, And Cello In C Major, Op.56: 1. AllegroDR15 -3.32 dB -22.85 dB 5:03 02-Concerto For Piano, Violin, And Cello In C Major, Op.56: 2. LargoDR11 -2.18 dB -17.76 dB 13:43 03-Concerto For Piano, Violin, And Cello In C Major, Op.56: 3. Rondo alla PolaccaDR12 -1.87 dB -19.20 dB 16:54 04-Concerto For Violin And Cello In A Minor, Op.102: 1. AllegroDR13 -5.39 dB -23.56 dB 8:09 05-Concerto For Violin And Cello In A Minor, Op.102: 2. AndanteDR12 -0.51 dB -18.10 dB 9:16 06-Concerto For Violin And Cello In A Minor, Op.102: 3. Vivace non troppo - Poco meno allegro - Tempo I--------------------------------------------------------------------------------
Number of tracks: 6Official DR value: DR12
Samplerate: 96000 HzChannels: 2Bits per sample: 24Bitrate: 2770 kbpsCodec: FLAC================================================================================



Ви не можете починати теми
Ви не можете відповідати на повідомлення
Ви не можете редагувати свої повідомлення
Ви не можете видаляти свої повідомлення
Ви не можете голосувати в опитуваннях
Ви не можете прикріплювати файли до повідомлень
Ви можете скачувати файли