[TR24][SM][OF] Beethoven & Schubert - Symphonies Nos. 6 & 5 - Wiener Philharmoniker & Karl Bohm - 1971 & 1980 (Classical)


Статистика роздачі [Оновити пиров]
Розмір:  1,31 GB   |    Зареєстрований:  1 рік   |    Скачано:  0 раз

Повного джерела не було: Ніколи

by Паночка ®
09-Бер-2018 20:17


[TR24][SM][OF] Beethoven & Schubert - Symphonies Nos. 6 & 5 - Wiener Philharmoniker & Karl Bohm - 1971 & 1980 (Classical)

·
·
·
·
Ludwig van Beethoven (1770 - 1827)
Franz Schubert (1797 - 1828)
Жанр: Symphony
Носитель: Official Digital Download
Год издания: 1971 & 1980
Год переиздания: 2015 © Deutsche Grammophon
Номер по каталогу: 479 4876
Продолжительность: 01:13:57
Наличие сканов в содержимом раздачи: artwork
Контейнер: FLAC (*.flac)
Разрядность: 24/96
Количество каналов: 2.0
Формат: tracks
Источник: Presto Classical
Pелизер: WEB (thanks to the original customer)

Треклист

Ludwig van Beethoven
Symphony No.6 in F Op. 68 'Pastoral'
01 I. Erwachen heiterer Empfindungen bei der Ankunft auf dem Lande: Allegro ma non troppo 12:21
02 II. Szene am Bach: Andante molto mosso 14:00
03 III. Lustiges Zusammensein der Landleute: Allegro 05:49
04 IV. Gewitter, Sturm: Allegro 03:42
05 V. Hirtengesang. Frohe und dankbare Gefühle nach dem Sturm: Allegretto 09:57
Franz Schubert
Symphony No. 5 in B Flat D. 485
06 I. Allegro 05:47
07 II. Andante con moto 10:46
08 III. Menuetto (Allegro molto) 05:53
09 IV. Allegro vivace 05:54

Исполнители

Wiener Philharmoniker
Karl Böhm

Dynamic Range Meter

foobar2000 1.3.10 / Dynamic Range Meter 1.1.1log date: 2016-10-16 20:15:47
--------------------------------------------------------------------------------Statistics for: 01-Symphony No.6 In F, Op.68 'Pastoral' - 1. Erwachen heiterer Empfindungen bei der Ankunft auf dem Lande: Allegro ma non troppoNumber of samples: 71156014Duration: 12:21--------------------------------------------------------------------------------
Left Right
Peak Value: -1.14 dB --- -0.88 dBAvg RMS: -19.14 dB --- -18.61 dBDR channel: 12.36 dB --- 12.05 dB--------------------------------------------------------------------------------
Official DR Value: DR12
Samplerate: 96000 HzChannels: 2Bits per sample: 24Bitrate: 2578 kbpsCodec: FLAC================================================================================foobar2000 1.3.10 / Dynamic Range Meter 1.1.1log date: 2016-10-16 20:17:13
--------------------------------------------------------------------------------Analyzed: Wiener Philharmoniker, Karl Böhm / Beethoven: Symphony No.6 'Pastoral' / Schubert: Symphony No.5--------------------------------------------------------------------------------
DR Peak RMS Duration Track--------------------------------------------------------------------------------DR14 -4.95 dB -24.09 dB 14:00 02-Symphony No.6 In F, Op.68 'Pastoral' - 2. Szene am Bach: Andante molto mossoDR13 -1.93 dB -19.64 dB 5:49 03-Symphony No.6 In F, Op.68 'Pastoral' - 3. Lustiges Zusammensein der Landleute: AllegroDR12 -0.94 dB -18.34 dB 3:42 04-Symphony No.6 In F, Op.68 'Pastoral' - 4. Gewitter, Sturm: AllegroDR12 -2.19 dB -18.97 dB 9:57 05-Symphony No.6 In F, Op.68 'Pastoral' - 5. Hirtengesang. Frohe und dankbare Gefühle nach dem Sturm: AllegrettoDR13 -1.12 dB -20.00 dB 5:47 06-Symphony No.5 In B Flat, D.485 - 1. AllegroDR14 -4.54 dB -23.87 dB 10:46 07-Symphony No.5 In B Flat, D.485 - 2. Andante con motoDR12 -2.50 dB -19.24 dB 5:53 08-Symphony No.5 In B Flat, D.485 - 3. Menuetto (Allegro molto)DR12 -2.52 dB -19.77 dB 5:54 09-Symphony No.5 In B Flat, D.485 - 4. Allegro vivace--------------------------------------------------------------------------------
Number of tracks: 8Official DR value: DR13
Samplerate: 96000 HzChannels: 2Bits per sample: 24Bitrate: 2518 kbpsCodec: FLAC================================================================================



Ви не можете починати теми
Ви не можете відповідати на повідомлення
Ви не можете редагувати свої повідомлення
Ви не можете видаляти свої повідомлення
Ви не можете голосувати в опитуваннях
Ви не можете прикріплювати файли до повідомлень
Ви можете скачувати файли