[TR24][SM][OF] Johannes Brahms - Piano Quintet Op. 34 - Quartetto Italiano & Maurizio Pollini - 1980 (Classical)


Статистика роздачі [Оновити пиров]
Розмір:  865 MB   |    Зареєстрований:  1 рік   |    Скачано:  0 раз

Повного джерела не було: Ніколи

by Паночка ®
09-Бер-2018 20:17


[TR24][SM][OF] Johannes Brahms - Piano Quintet Op. 34 - Quartetto Italiano & Maurizio Pollini - 1980 (Classical)

·
·
·
·
Johannes Brahms
(1833 - 1897)
Жанр: Chamber Music
Носитель: Official Digital Download
Год издания: 1980
Год переиздания: 2016 © Deutsche Grammophon
Номер по каталогу: 479 6916
Продолжительность: 43:48
Наличие сканов в содержимом раздачи: artwork
Контейнер: FLAC (*.flac)
Разрядность: 24/96
Количество каналов: 2.0
Формат: tracks
Источник: qobuz.com
Pелизер: WEB (thanks to the original customer)

Треклист

Piano Quintet in F minor Op. 34
01 I. Allegro non troppo 16:02
02 II. Andante, un poco adagio 09:04
03 III. Scherzo (Allegro) 07:43
04 IV. Finale (poco sostenuto - Allegro non troppo) 10:59

Исполнители

Maurizio Pollini · piano
QUARTETTO ITALIANO
Dino Asciolla · viola
Paolo Borciani · violin
Elisa Pegreffi · violin
Franco Rossi · cello

Dynamic Range Meter

foobar2000 1.3.10 / Dynamic Range Meter 1.1.1log date: 2017-05-28 09:55:54
--------------------------------------------------------------------------------Analyzed: Maurizio Pollini, Quartetto Italiano / Brahms: Piano Quintet Op.34--------------------------------------------------------------------------------
DR Peak RMS Duration Track--------------------------------------------------------------------------------DR13 -0.84 dB -19.51 dB 16:02 01-Piano Quintet In F Minor, Op.34: 1. Allegro non troppoDR15 -1.78 dB -23.06 dB 9:04 02-Piano Quintet In F Minor, Op.34: 2. Andante, un poco adagioDR11 -1.02 dB -16.10 dB 7:43 03-Piano Quintet In F Minor, Op.34: 3. Scherzo (Allegro)DR12 -0.67 dB -18.67 dB 10:59 04-Piano Quintet In F Minor, Op.34: 4. Finale (poco sostenuto - Allegro non troppo)--------------------------------------------------------------------------------
Number of tracks: 4Official DR value: DR13
Samplerate: 96000 HzChannels: 2Bits per sample: 24Bitrate: 2751 kbpsCodec: FLAC================================================================================



Ви не можете починати теми
Ви не можете відповідати на повідомлення
Ви не можете редагувати свої повідомлення
Ви не можете видаляти свої повідомлення
Ви не можете голосувати в опитуваннях
Ви не можете прикріплювати файли до повідомлень
Ви можете скачувати файли