[TR24][SM][OF] Antonin Dvorak - Symphony No. 8 & Two Slavonic Dances - The Cleveland Orchestra & George Szell - 1970 [2011, Remaster] (Classical)


Статистика роздачі [Оновити пиров]
Розмір:  930 MB   |    Зареєстрований:  1 рік   |    Скачано:  0 раз

Повного джерела не було: Ніколи

by Паночка ®
09-Бер-2018 20:17


[TR24][SM][OF] Antonin Dvorak - Symphony No. 8 & Two Slavonic Dances - The Cleveland Orchestra & George Szell - 1970 [2011, Remaster] (Classical)

·
·
·
·

Antonín Leopold Dvořák
(1841 - 1904)
Жанр: Orchestral
Носитель: Official Digital Download
Издание: 1970 © His Master's Voice
Номер по каталогу: ASD 2653
Переиздание: 2012 © EMI Records Limited
Продолжительность: 48:54
Наличие сканов в содержимом раздачи: cover art
Контейнер: FLAC (*.flac)
Разрядность: 24/96
Количество каналов: 2.0
Формат: tracks
Источник: HDtracks
Pелизер: WEB (thanks to the original customer)

Треклист

Symphony No. 8 in G major B. 163 Op. 88
01 I. Allegro con brio 10:52
02 II. Adagio 10:39
03 III. Allegretto grazioso - Molto vivace 06:42
04 IV. Allegro, ma non troppo 09:35
05 Slavonic Dance No. 3 in A flat major : Polka (Poco allegro) 06:06
06 Slavonic Dance No. 10 in E minor : Dumka (Allegretto grazioso) 05:03

Dynamic Range Meter

foobar2000 1.3.10 / Dynamic Range Meter 1.1.1log date: 2017-10-28 11:05:52
--------------------------------------------------------------------------------Analyzed: Cleveland Orchestra, George Szell / Dvořák: Symphony No. 8--------------------------------------------------------------------------------
DR Peak RMS Duration Track--------------------------------------------------------------------------------DR6 0.00 dB -11.12 dB 10:52 01-Symphony No. 8 in G Major, B.163, Op.88: I. Allegro con brioDR7 0.00 dB -13.03 dB 10:39 02-Symphony No. 8 in G Major, B.163, Op.88: II. AdagioDR10 0.00 dB -14.82 dB 6:42 03-Symphony No. 8 in G Major, B.163, Op.88: III. Allegretto grazioso - Molto vivaceDR7 0.00 dB -11.35 dB 9:35 04-Symphony No. 8 in G Major, B.163, Op.88: IV. Allegro, ma non troppoDR10 0.00 dB -13.99 dB 6:06 05-Slavonic Dance No.3 in A Flat Major: Polka (Poco allegro)DR9 0.00 dB -12.90 dB 5:03 06-Slavonic Dance No.10 in E Minor: Dumka (Allegretto grazioso)--------------------------------------------------------------------------------
Number of tracks: 6Official DR value: DR8
Samplerate: 96000 HzChannels: 2Bits per sample: 24Bitrate: 2703 kbpsCodec: FLAC================================================================================



Ви не можете починати теми
Ви не можете відповідати на повідомлення
Ви не можете редагувати свої повідомлення
Ви не можете видаляти свої повідомлення
Ви не можете голосувати в опитуваннях
Ви не можете прикріплювати файли до повідомлень
Ви можете скачувати файли