[TR24][OF] Аркадий Володось /Arcadi Volodos - Volodos Plays Brahms - 2017 (Classical)


Статистика роздачі [Оновити пиров]
Розмір:  783 MB   |    Зареєстрований:  1 рік 1 місяць   |    Скачано:  0 раз

Повного джерела не було: Ніколи

by Паночка ®
09-Бер-2018 20:17


[TR24][OF] Аркадий Володось /Arcadi Volodos - Volodos Plays Brahms - 2017 (Classical)

Аркадий Володось / Arcadi Volodos - Volodos Plays Brahms (2017)
Формат записи/Источник записи: [SACD-R][OF]
Наличие водяных знаков: Нет
Год издания/переиздания диска: 2017
Жанр: Classical
Издатель (лейбл): Sony BMG Music Entertainment
Продолжительность: 00:54:08
Наличие сканов в содержимом раздачи: Нет
Треклист:
1. No. 1, Capriccio in F-Sharp Minor (03:31)
2. No. 2, Capriccio in B Minor (03:33)
3. No. 3, Intermezzo in A-Flat Major (02:27)
4. No. 4, Intermezzo in B-Flat Major (02:22)
5. No. 1 in E-Flat Major (05:31)
6. No. 2 in B-Flat Minor (05:15)
7. No. 3 in C-Sharp Minor (06:39)
8. No. 1, Intermezzo in A Minor (01:57)
9. No. 2, Intermezzo in A Major (06:18)
10. No. 3, Ballade in G Minor (03:23)
11. No. 4, Intermezzo in F Minor (02:45)
12. No. 5, Romanze in F Major (04:12)
13. No. 6, Intermezzo in E-Flat Minor (06:10)
Контейнер: FLAC (*.flac)
Тип рипа: tracks
Разрядность: 24/96
Формат: WAV (flac.ape.wv)
Количество каналов: 2.0

Official DR value

foobar2000 1.3.7 / Dynamic Range Meter 1.1.1log date: 2017-06-04 22:07:32
––––––––––––––––––––––––––––––––––––––––Analyzed: Arcadi Volodos / Volodos Plays Brahms––––––––––––––––––––––––––––––––––––––––
DR Peak RMS Duration Track––––––––––––––––––––––––––––––––––––––––DR14 -0.50 dB -21.08 dB 3:31 01-Capriccio in F-Sharp Minor, Op. 76, No. 1DR13 -5.58 dB -25.11 dB 3:33 02-Capriccio in B Minor, Op. 76, No. 2DR14 -8.77 dB -29.26 dB 2:28 03-Intermezzo in A-Flat Major, Op. 76, No. 3DR12 -10.72 dB -26.65 dB 2:22 04-Intermezzo in B-Flat Major, Op. 76, No. 4DR16 -8.78 dB -30.53 dB 5:32 05-Drei Intermezzi, Op. 117: I. Andante moderatoDR14 -1.79 dB -23.30 dB 5:15 06-Drei Intermezzi, Op. 117: II. Andante non troppo e con molto espressioneDR14 -2.12 dB -23.12 dB 6:39 07-Drei Intermezzi, Op. 117: III. Andante con motoDR12 -1.87 dB -19.09 dB 1:57 08-Sechs Klavierstücke, Op. 118: I. Intermezzo in A MinorDR13 -4.71 dB -25.60 dB 6:19 09-Sechs Klavierstücke, Op. 118: II. Intermezzo in A MajorDR12 -1.12 dB -19.12 dB 3:23 10-Sechs Klavierstücke, Op. 118: III. Ballade in G MinorDR12 -0.50 dB -20.29 dB 2:46 11-Sechs Klavierstücke, Op. 118: IV. Intermezzo in F MinorDR14 -7.90 dB -26.96 dB 4:13 12-Sechs Klavierstücke, Op. 118: V. Romanze in F MajorDR14 -0.93 dB -22.41 dB 6:11 13-Sechs Klavierstücke, Op. 118: VI. Intermezzo in E-Flat Minor––––––––––––––––––––––––––––––––––––––––
Number of tracks: 13Official DR value: DR13
Samplerate: 96000 HzChannels: 2Bits per sample: 24Bitrate: 2011 kbpsCodec: FLAC================================================================================
Композитор: Brahms



Ви не можете починати теми
Ви не можете відповідати на повідомлення
Ви не можете редагувати свої повідомлення
Ви не можете видаляти свої повідомлення
Ви не можете голосувати в опитуваннях
Ви не можете прикріплювати файли до повідомлень
Ви можете скачувати файли