[TR24][SM][OF] Richard Strauss - Four Last & other Songs with Orchestra - Elisabeth Schwarzkopf, George Szell, Berlin Radio & London Symphony Orchestras - 1966 & 1969 (Classical)


Статистика роздачі [Оновити пиров]
Розмір:  1,22 GB   |    Зареєстрований:  1 рік   |    Скачано:  0 раз

Повного джерела не було: Ніколи

by Паночка ®
09-Бер-2018 20:17


[TR24][SM][OF] Richard Strauss - Four Last & other Songs with Orchestra - Elisabeth Schwarzkopf, George Szell, Berlin Radio & London Symphony Orchestras - 1966 & 1969 (Classical)

·
·
·
·
Richard Georg Strauss
(1864 - 1949)
Жанр: Vocal Music
Носитель: Official Digital Download
Издание: 1966 & 1969 ℗ His Master's Voice
Переиздание: Digital Remastering ℗ 2011
Год выпуска: 2012 © EMI Records Limited
Продолжительность: 01:03:56
Наличие сканов в содержимом раздачи: cover art
Контейнер: FLAC (*.flac)
Разрядность: 24/96
Количество каналов: 2.0
Формат: tracks
Источник: HDtracks
Pелизер: WEB (thanks to the original customer)

Треклист

Vier letzte Lieder Op. posth. *
01 Frühling (Hesse) 03:46
02 September (Hesse) 05:17
03 Beim Schlafenhegen (Hesse) 05:22
04 Im Abendrot (Eichendorff) 08:20
05 Muttertändelei Op. 43 No. 2 (Bürger) 02:04 *
06 Waldseligkeit Op. 49 No. 1 (Dehmel) 03:14 *
07 Zueignung Op. 10 No. 1 (von Gilm) 01:50 *
08 Freundliche Vision Op. 48 No. 1 (Bierbaum) 03:06 *
09 Die Heiligen Drei Könige Op. 56 No. 6 (Heine) 06:39 *
10 Ruhe, Meine Seele Op. 27 No. 1 (Henckell) 03:59
11 Meinem Kinde Op. 37 No. 3 (Falke) 02:48
12 Wiegenlied Op. 41 No. 1 (Dehmel) 04:52
13 Morgen Op. 27 No. 4 (Mackay) 03:50
14 Das Bächlein Op. 88 No. 1 (Goethe) 02:06
15 Das Rosenband Op. 36 No. 1 (Klopstock) 03:17
16 Winterweihe Op. 48 No. 4 (Henckell) 03:20

Исполнители

Elisabeth Schwarzkopf · soprano
Berlin Radio Symphony Orchestra *
London Symphony Orchestra
George Szell

Dynamic Range Meter

foobar2000 1.2.6 / Dynamic Range Meter 1.1.1log date: 2016-04-15 18:46:19
--------------------------------------------------------------------------------Analyzed: Elisabeth Schwarzkopf, Radio-Sinfonie-Orchester Berlin, George Szell / Richard Strauss: Vier Letzte Lieder--------------------------------------------------------------------------------
DR Peak RMS Duration Track--------------------------------------------------------------------------------DR11 -1.46 dB -17.91 dB 3:45 01-Vier letzte Lieder (Four Last Songs) Op. posth.: 1. Fruhling (Hesse)DR11 -5.94 dB -22.19 dB 5:23 02-Vier letzte Lieder (Four Last Songs) Op. posth.: 2. September (Hesse)DR12 -3.78 dB -22.42 dB 5:26 03-Vier letzte Lieder (Four Last Songs) Op. posth.: 3. Beim Schlafengehen (Hesse)DR12 -4.55 dB -22.13 dB 8:26 04-Vier letzte Lieder (Four Last Songs) Op. posth.: 4. Im Abendrot (Eichendorff)DR13 -3.41 dB -22.67 dB 2:08 05-Muttertandelei, Op.43/2DR11 -10.39 dB -26.80 dB 3:18 06-Waldseligkeit, Op.49/1DR12 -0.13 dB -17.74 dB 1:55 07-Zueignung, Op.10/1DR10 -2.77 dB -24.00 dB 3:10 08-Freundliche Vision, Op.48/1DR13 -0.81 dB -21.21 dB 6:40 09-Die heiligen drei Konige, Op.56/6DR12 -0.70 dB -20.44 dB 3:54 10-Ruhe, meine Seele, Op.27/1DR12 -5.22 dB -24.00 dB 2:50 11-Meinem Kinde, Op.37/3DR11 -2.49 dB -21.21 dB 4:46 12-Wiegenlied, Op.41/1DR11 -8.74 dB -27.43 dB 3:46 13-Morgen, Op.27/4DR10 -4.18 dB -19.74 dB 2:01 14-Das Bachlein, Op.88/1DR12 -4.24 dB -22.59 dB 3:13 15-Das Rosenband, Op.36 No. 1DR10 -5.75 dB -22.85 dB 3:22 16-Winterweihe, Op.48/4--------------------------------------------------------------------------------
Number of tracks: 16Official DR value: DR12
Samplerate: 96000 HzChannels: 2Bits per sample: 24Bitrate: 2695 kbpsCodec: FLAC================================================================================



Ви не можете починати теми
Ви не можете відповідати на повідомлення
Ви не можете редагувати свої повідомлення
Ви не можете видаляти свої повідомлення
Ви не можете голосувати в опитуваннях
Ви не можете прикріплювати файли до повідомлень
Ви можете скачувати файли