[TR24][OF] Leonard Bernstein - Bernstein Conducts Strauss (Remastered) - 2017 (Classical)


Статистика роздачі [Оновити пиров]
Розмір:  2,6 GB   |    Зареєстрований:  1 рік   |    Скачано:  0 раз

Повного джерела не було: Ніколи

by Паночка ®
09-Бер-2018 20:17


[TR24][OF] Leonard Bernstein - Bernstein Conducts Strauss (Remastered) - 2017 (Classical)

Leonard Bernstein / Bernstein Conducts Strauss
Формат записи/Источник записи: [TR24][OF]
Наличие водяных знаков: Нет
Издание: Remastered
Год издания/переиздания диска: 2017
Жанр: Classical
Издатель (лейбл): Sony Classical
Продолжительность: 01:12:26
Наличие сканов в содержимом раздачи: Только обложка альбома
Треклист:
01. An der schonen blauen Donau, Walzer, Op. 314 (10:21)
02. Kaiser-Walzer, Op. 437 (11:54)
03. Wiener Blut, Walzer, Op. 354 (8:14)
04. Kunstlerleben, Walzer, Op. 316 (7:59)
05. Fruhlingsstimmen, Walzer, Op. 410 (5:52)
06. Rosen aus dem Suden, Walzer, Op. 388 (11:50)
07. Geschichten aus dem Wienerwald, Walzer, Op. 325 (15:46)
Контейнер: FLAC (*.flac)
Тип рипа: tracks
Разрядность: 24/192
Формат: WAV (flac.ape.wv)
Количество каналов: 2.0

Лог проверки качества

foobar2000 1.3.17 / Dynamic Range Meter 1.1.1log date: 2017-12-31 14:45:09
--------------------------------------------------------------------------------Analyzed: Leonard Bernstein / Bernstein Conducts Strauss (Remastered)--------------------------------------------------------------------------------
DR Peak RMS Duration Track--------------------------------------------------------------------------------DR13 -1.77 dB -21.83 dB 10:26 01-An der schonen blauen Donau, Walzer, Op. 314 (Remastered)DR13 -0.77 dB -20.12 dB 11:59 02-Kaiser-Walzer, Op. 437 (Remastered)DR13 -1.46 dB -19.50 dB 8:19 03-Wiener Blut, Walzer, Op. 354 (Remastered)DR12 -3.20 dB -19.59 dB 8:04 04-Kunstlerleben, Walzer, Op. 316 (Remastered)DR12 -2.74 dB -19.14 dB 5:57 05-Fruhlingsstimmen, Walzer, Op. 410 (Remastered)DR13 -0.79 dB -19.02 dB 11:55 06-Rosen aus dem Suden, Walzer, Op. 388 (Remastered)DR14 -0.89 dB -20.51 dB 15:46 07-Geschichten aus dem Wienerwald, Walzer, Op. 325 (Remastered)--------------------------------------------------------------------------------
Number of tracks: 7Official DR value: DR13
Samplerate: 192000 HzChannels: 2Bits per sample: 24Bitrate: 5160 kbpsCodec: FLAC================================================================================
Оркестр: New York Philharmonic Orchestra
Композитор: Johann Strauss II
Дирижер: Leonard Bernstein
Источник (релизер):



Ви не можете починати теми
Ви не можете відповідати на повідомлення
Ви не можете редагувати свої повідомлення
Ви не можете видаляти свої повідомлення
Ви не можете голосувати в опитуваннях
Ви не можете прикріплювати файли до повідомлень
Ви можете скачувати файли