[TR24][OF] Ann Hallenberg - Agrippina, Opera Arias (Il Pomo d’Oro, Riccardo Minasi) - 2015 (Baroque opera)


Статистика роздачі [Оновити пиров]
Розмір:  1,44 GB   |    Зареєстрований:  1 рік   |    Скачано:  0 раз

Повного джерела не було: Ніколи

by Паночка ®
09-Бер-2018 20:17


[TR24][OF] Ann Hallenberg - Agrippina, Opera Arias (Il Pomo d’Oro, Riccardo Minasi) - 2015 (Baroque opera)

Ann Hallenberg - Agrippina, Opera Arias (Il Pomo d’Oro, Riccardo Minasi)
Формат записи/Источник записи: [TR24][OF]
Наличие водяных знаков: Нет
Год издания/переиздания диска: 2015
Жанр: Baroque opera
Издатель (лейбл): Deutsche Harmonia Mundi
Продолжительность: 74:00
Наличие сканов в содержимом раздачи: Только обложка альбома
Контейнер: FLAC (*.flac)
Тип рипа: tracks
Разрядность: 24/96
Формат: PCM
Количество каналов: 2.0

Треклист:

01. Perti - Nerone fatto Cesare: "Date all'armi o spirti fieri" 3:58
02. Porpora - L'Agrippina: "Mormorando anch'il ruschello" 4:40
03. Porpora - L'Agrippina: "Con troppo fiere immagini" 3:55
04. Graun - Britannico: "Se la mia vita, o figlio" 8:37
05. Graun - Britannico: "Mi paventi il figlio indegno" 8:00
06. Orlandini - Nerone: "Tutta furie e tutta sdegno" 3:20
07. Mattheson - Nero: "Gia tutto valore" 2:50
08. Handel - Agrippina, HWV 6: "Ogni vento" 4:44
09. Handel - Agrippina, HWV 6: "Pensieri, voi mi tormentate" 6:31
10. Handel - Agrippina, HWV 6: "L'alma mia fra le tempeste" 2:36
11. Telemann - Germanicus: "Rimembranza crudel" 6:56
12. Paolo Giuseppe Magni - Nerone infante: "Date all'armi o spirti fieri" 3:03
13. Sammartini - Agrippina, moglie di Tiberio: "Non ho piu vele" 5:55
14. Sammartini - Agrippina, moglie di Tiberio: "Deh, lasciami in pace" 5:29
15. Legrenzi - Germanico sul Reno: "O soavi tormenti dell'alma" 1:34
16. Perti - Nerone fatto Cesare: "Questo brando, questo folgore" 2:44

Лог проверки качества

foobar2000 1.3.14 / Замер динамического диапазона (DR) 1.1.1Дата отчёта:  2018-01-03 17:33:09
--------------------------------------------------------------------------------Анализ: Ann Hallenberg/Jean-Daniel Noir/Il pomo d'oro / Agrippina - Opera Arias--------------------------------------------------------------------------------
DR Пики RMS Продолжительность трека--------------------------------------------------------------------------------DR12 -0.25 дБ -15.32 дБ 3:58 01-Nerone fatto Cesare: Date all'armi o spirti fieriDR14 -1.08 дБ -19.76 дБ 4:40 02-L'Agrippina: Mormorando anch'il ruschelloDR14 -0.25 дБ -19.26 дБ 3:55 03-L'Agrippina: Con troppo fiere immaginiDR11 -0.25 дБ -15.21 дБ 8:37 04-Britannico: Se la mia vita, o figlioDR9 -0.25 дБ -11.90 дБ 8:00 05-Britannico: Mi paventi il figlio indegnoDR10 -0.25 дБ -12.40 дБ 3:20 06-Nerone: Tutta furie e tutta sdegnoDR11 -0.25 дБ -14.61 дБ 2:50 07-Nero: Già tutto valoreDR13 -0.25 дБ -16.73 дБ 4:44 08-Agrippina, HWV 6: Ogni ventoDR11 -0.25 дБ -15.10 дБ 6:31 09-Agrippina, HWV 6: Pensieri, voi mi tormentateDR11 -0.25 дБ -14.80 дБ 2:36 10-Agrippina, HWV 6: L'alma mia fra le tempesteDR13 -0.25 дБ -16.83 дБ 6:56 11-Germanicus: Rimembranza crudelDR11 -0.25 дБ -14.87 дБ 3:03 12-Nerone infante: Date all'armi o spirti fieriDR12 -0.25 дБ -14.54 дБ 5:55 13-Agrippina, moglie di Tiberio: Non ho più veleDR13 -0.25 дБ -16.47 дБ 5:29 14-Agrippina, moglie di Tiberio: Deh, lasciami in paceDR12 -0.25 дБ -19.08 дБ 1:34 15-Germanico sul Reno: O soavi tormenti dell'almaDR12 -0.25 дБ -16.05 дБ 2:44 16-Nerone fatto Cesare: Questo brando, questo folgore--------------------------------------------------------------------------------
Количество треков: 16Реальные значения DR: DR12
Частота: 96000 ГцКаналов: 2Разрядность: 24Битрейт: 2726 кбит/сКодек: FLAC================================================================================

Скриншот спектра частот



Об альбоме (сборнике)

The programme presented by Ann Hallenberg for DHM is a homage to the historical roman figure of Agrippina, one of the earliest historical women to inspire the fantasy of librettists and composers. Ann Hallenberg and a team of musicologists researched the musical archives to unearth all surviving operatic manuscripts containing the figure of Agrippina. Twelve of the arias are WORLD PREMIERE RECORDINGS. Apart from Handel’s famous opera ‘Agrippina’ and Telemann’s ‘Germanicus’, all music on this album has been recorded for the first time. This album is also a fascinating journey through the history of baroque opera. The earliest piece, Legrenzi’s ‘Germanico sul Reno’ dates from 1676 and is a typical example of early baroque style. The latest work, Graun’s ‘Britannico’ from 1752, was written only four years before the birth of Mozart, at the very end of the musical baroque period.
Источник (релизер): https://www.prestoclassical.co.uk/classical/products/8060951--agrippina-opera-arias#related



Ви не можете починати теми
Ви не можете відповідати на повідомлення
Ви не можете редагувати свої повідомлення
Ви не можете видаляти свої повідомлення
Ви не можете голосувати в опитуваннях
Ви не можете прикріплювати файли до повідомлень
Ви можете скачувати файли