[TR24][SM][OF] Robert Schumann - Liederkreis Op. 39 & Frauenliebe und Leben Op. 42 - Elisabeth Schwarzkopf & Geoffrey Parsons - 1974 (Classical)


Статистика роздачі [Оновити пиров]
Розмір:  789 MB   |    Зареєстрований:  1 рік   |    Скачано:  0 раз

Повного джерела не було: Ніколи

by Паночка ®
09-Бер-2018 20:17


[TR24][SM][OF] Robert Schumann - Liederkreis Op. 39 & Frauenliebe und Leben Op. 42 - Elisabeth Schwarzkopf & Geoffrey Parsons - 1974 (Classical)

·
·
·
·
Robert Schumann
(1810 - 1856)
Жанр: Vocal Music
Носитель: Official Digital Download
Издание: S-37043 ℗ Angel Records 1974
Переиздание: Digital Remastering ℗ 2011
Год выпуска: 2013 © EMI Records Limited
Продолжительность: 45:18
Наличие сканов в содержимом раздачи: cover art
Контейнер: FLAC (*.flac)
Разрядность: 24/96
Количество каналов: 2.0
Формат: tracks
Источник: e-onkyo.com
Pелизер: WEB (thanks to the original customer)

Треклист

Liederkreis Op. 39
words by Eichendorff
01 In der Fremde 02:10
02 Intermezzo 01:30
03 Waldesgespräch 02:27
04 Die Stille 01:31
05 Mondnacht 03:51
06 Schöne Fremde 01:21
07 Auf einer Burg 03:07
08 In der Fremde 01:13
09 Wehmut 02:25
10 Zwielicht 02:44
11 Im Walde 01:33
12 Frühlingsnacht 01:16
Frauenliebe und Leben Op. 42
words by Chamisso
13 Seit ich ihn gesehen 02:05
14 Er, der Herrlichste von allen 03:00
15 Ich kann’s nicht fassen, nicht glauben 01:34
16 Du Ring an meinem Finger 02:00
17 Helft mir, ihr Schwestern 01:56
18 Süsser Freund, du blickest 04:06
19 An meinem Herzen, an meiner Brust 01:21
20 Nun hast du mir den ersten Schmerz getan 04:01

Исполнители

Elisabeth Schwarzkopf · soprano
Geoffrey Parsons · piano

Dynamic Range Meter

foobar2000 1.3.10 / Dynamic Range Meter 1.1.1log date: 2018-01-03 00:17:22
--------------------------------------------------------------------------------Analyzed: Elisabeth Schwarzkopf, Geoffrey Parsons / Schumann: Frauenliebe und Leben, Liederkreis--------------------------------------------------------------------------------
DR Peak RMS Duration Track--------------------------------------------------------------------------------DR11 -7.83 dB -25.36 dB 2:10 01-Liederkreis Op.39 - 1. In der FremdeDR12 -2.12 dB -20.66 dB 1:31 02-Liederkreis Op.39 - 2. IntermezzoDR12 -1.13 dB -18.64 dB 2:28 03-Liederkreis Op.39 - 3. WaldesgesprächDR12 -3.03 dB -24.18 dB 1:32 04-Liederkreis Op.39 - 4. Die StilleDR11 -7.66 dB -24.60 dB 3:52 05-Liederkreis Op.39 - 5. MondnachtDR10 -2.13 dB -20.94 dB 1:22 06-Liederkreis Op.39 - 6. Schöne FremdeDR11 -12.17 dB -28.26 dB 3:07 07-Liederkreis Op.39 - 7. Auf einer BurgDR11 -6.03 dB -22.41 dB 1:13 08-Liederkreis Op.39 - 8. In der FremdeDR10 -8.30 dB -25.99 dB 2:26 09-Liederkreis Op.39 - 9. WehmutDR11 -7.16 dB -25.86 dB 2:45 10-Liederkreis Op.39 - 10. ZwielichtDR12 -1.69 dB -20.00 dB 1:33 11-Liederkreis Op.39 - 11. Im WaldeDR11 -1.74 dB -18.21 dB 1:16 12-Liederkreis Op.39 - 12. FrühlingsnachtDR11 -8.97 dB -24.52 dB 2:05 13-Frauenliebe und leben, Op.42 - Seit ich ihn gesehenDR12 -1.18 dB -18.77 dB 3:00 14-Frauenliebe und leben, Op.42 - Er, der Herrlichste von allenDR12 -1.48 dB -22.01 dB 1:34 15-Frauenliebe und leben, Op.42 - Ich kann's nicht fassen, nicht glaubenDR12 -1.03 dB -18.36 dB 2:00 16-Frauenliebe und leben, Op.42 - Du Ring an meinem FingerDR10 -0.39 dB -17.77 dB 1:56 17-Frauenliebe und leben, Op.42 - Helft mir, ihr SchwesternDR13 -1.51 dB -22.49 dB 4:07 18-Frauenliebe und leben, Op.42 - Süsser Freund, du blickestDR12 -1.85 dB -18.04 dB 1:22 19-Frauenliebe und leben, Op.42 - An meinem Herzen, an meiner BrustDR11 -6.94 dB -26.36 dB 4:01 20-Frauenliebe und leben, Op.42 - Nun hast du mir den ersten Schmerz getan--------------------------------------------------------------------------------
Number of tracks: 20Official DR value: DR11
Samplerate: 96000 HzChannels: 2Bits per sample: 24Bitrate: 2312 kbpsCodec: FLAC================================================================================



Ви не можете починати теми
Ви не можете відповідати на повідомлення
Ви не можете редагувати свої повідомлення
Ви не можете видаляти свої повідомлення
Ви не можете голосувати в опитуваннях
Ви не можете прикріплювати файли до повідомлень
Ви можете скачувати файли