[TR24][OF] Шостакович — Симфония № 6, соч. 54; Симфониетта - Квартет № 8, соч. 110b (Paavo Jarvi, Estonian Festival Orchestra) - 2018 (Classical)


Статистика роздачі [Оновити пиров]
Розмір:  925 MB   |    Зареєстрований:  1 рік   |    Скачано:  0 раз

Повного джерела не було: Ніколи

by Паночка ®
09-Бер-2018 20:17


[TR24][OF] Шостакович — Симфония № 6, соч. 54; Симфониетта - Квартет № 8, соч. 110b (Paavo Jarvi, Estonian Festival Orchestra) - 2018 (Classical)

Shostakovich
Symphony No.6  ·  Sinfonietta

Alpha · ALPHA 389 · 2018 · web · trailer 
FLAC · 24 bit · 96 khz · 00:56:25 · booklet
Estonian Festival Orchestra................
Paavo Järvi.......................conductor-

Tracklist

01-03. Symphony No. 6 in B Minor, Op. 5404-08. Sinfonietta (Quartet No. 8), Op. 110b

log

foobar2000 1.3.15 / Dynamic Range Meter 1.1.1log date: 2018-01-13 14:26:29
--------------------------------------------------------------------------------Analyzed: Estonian Festival Orchestra (Paavo Järvi) / Shostakovich — Symphony No. 6; Sinfonietta--------------------------------------------------------------------------------
DR Peak RMS Duration Track--------------------------------------------------------------------------------DR16 -0.90 dB -24.37 dB 18:23 01-Symphony No. 6 in B Minor, Op. 54: I. LargoDR13 -0.70 dB -20.13 dB 6:11 02-Symphony No. 6 in B Minor, Op. 54: II. AllegroDR13 -0.70 dB -19.80 dB 6:48 03-Symphony No. 6 in B Minor, Op. 54: III. PrestoDR14 -9.49 dB -31.83 dB 6:06 04-Sinfonietta (Quartet No. 8), Op. 110b: I. LargoDR12 -0.24 dB -14.71 dB 2:58 05-Sinfonietta (Quartet No. 8), Op. 110b: II. Allegro moltoDR15 -3.57 dB -24.60 dB 4:50 06-Sinfonietta (Quartet No. 8), Op. 110b: III. AllegroDR15 -0.28 dB -22.15 dB 6:06 07-Sinfonietta (Quartet No. 8), Op. 110b: IV. LargoDR13 -7.89 dB -28.65 dB 5:04 08-Sinfonietta (Quartet No. 8), Op. 110b: V. Largo--------------------------------------------------------------------------------
Number of tracks: 8Official DR value: DR14
Samplerate: 96000 HzChannels: 2Bits per sample: 24Bitrate: 1881 kbpsCodec: FLAC================================================================================

range

01. Symphony No. 6 in B Minor, Op. 54 I. Largo.flac



Ви не можете починати теми
Ви не можете відповідати на повідомлення
Ви не можете редагувати свої повідомлення
Ви не можете видаляти свої повідомлення
Ви не можете голосувати в опитуваннях
Ви не можете прикріплювати файли до повідомлень
Ви можете скачувати файли