[TR24][OF] Schubert — Piano Trio No. 1, D 898; No. 2, D 929; Notturno, D 897; Sonatensatz, D 28 (Trio Elegiaque) - 2018 (Classical)


Статистика роздачі [Оновити пиров]
Розмір:  980 MB   |    Зареєстрований:  1 рік   |    Скачано:  0 раз

Повного джерела не було: Ніколи

by Паночка ®
09-Бер-2018 20:17


[TR24][OF] Schubert — Piano Trio No. 1, D 898; No. 2, D 929; Notturno, D 897; Sonatensatz, D 28 (Trio Elegiaque) - 2018 (Classical)

Trio Élégiaque
Schubert — Notturno

Complete Works for Piano Trio

Academy Productions · No. ? · 2018 · web 
FLAC · 24bit · 44khz · 01:50:00 · booklet
François Dumont.....................piano
Philippe Aïche.....................violin
Virginie Constant...................cello-

Tracklist

01-04. Piano Trio No. 1 in B-Flat Major, Op. 99, D. 89805.    Notturno for Violin, Cello and Piano in E-Flat Major, Op. 148, D. 89706.    Sonatensatz for Violin, Cello and Piano in B-Flat Major, D. 2807-10. Piano Trio No. 2 in E-Flat Major, Op. 100, D. 929

log

foobar2000 1.3.15 / Dynamic Range Meter 1.1.1log date: 2018-01-14 19:23:43
--------------------------------------------------------------------------------Analyzed: Trio Élégiaque / Schubert — Notturno: Complete Works for Piano Trio--------------------------------------------------------------------------------
DR Peak RMS Duration Track--------------------------------------------------------------------------------DR13 -0.56 dB -18.80 dB 15:29 01-Piano Trio No. 1 in B-Flat Major, Op. 99, D. 898: I. Allegro moderatoDR15 -4.70 dB -25.87 dB 11:32 02-Piano Trio No. 1 in B-Flat Major, Op. 99, D. 898: II. Andante un poco mossoDR14 -1.91 dB -20.91 dB 6:41 03-Piano Trio No. 1 in B-Flat Major, Op. 99, D. 898: III. Scherzo. Allegro-Trio-Scherzo da capoDR13 -0.01 dB -19.23 dB 9:21 04-Piano Trio No. 1 in B-Flat Major, Op. 99, D. 898: IV. Rondo. Allegro vivaceDR13 -1.08 dB -21.08 dB 10:45 05-Notturno for Violin, Cello and Piano in E-Flat Major, Op. 148, D. 897: AdagioDR14 -0.45 dB -20.19 dB 10:58 06-Sonatensatz for Violin, Cello and Piano in B-Flat Major, D. 28: AllegroDR14 0.00 dB -18.79 dB 16:04 07-Piano Trio No. 2 in E-Flat Major, Op. 100, D. 929: I. AllegroDR13 -0.31 dB -20.28 dB 9:29 08-Piano Trio No. 2 in E-Flat Major, Op. 100, D. 929: II. Andante con moto-Un poco più lentoDR14 -0.86 dB -21.81 dB 6:35 09-Piano Trio No. 2 in E-Flat Major, Op. 100, D. 929: III. Scherzo. Allegro moderato scherzando-Trio-Scherzo da capoDR13 -0.93 dB -18.40 dB 13:07 10-Piano Trio No. 2 in E-Flat Major, Op. 100, D. 929: IV. Allegro moderato--------------------------------------------------------------------------------
Number of tracks: 10Official DR value: DR14
Samplerate: 44100 HzChannels: 2Bits per sample: 24Bitrate: 1253 kbpsCodec: FLAC================================================================================

range

01. Piano Trio No. 1 in B-Flat Major, Op. 99, D. 898 I. Allegro moderato



Ви не можете починати теми
Ви не можете відповідати на повідомлення
Ви не можете редагувати свої повідомлення
Ви не можете видаляти свої повідомлення
Ви не можете голосувати в опитуваннях
Ви не можете прикріплювати файли до повідомлень
Ви можете скачувати файли