[TR24][OF] Yann Tiersen - EUSA - 2016 (Piano, Neoclassical)


Статистика роздачі [Оновити пиров]
Розмір:  1,02 GB   |    Зареєстрований:  1 рік   |    Скачано:  0 раз

Повного джерела не було: Ніколи

by Паночка ®
09-Бер-2018 20:17


[TR24][OF] Yann Tiersen - EUSA - 2016 (Piano, Neoclassical)

Yann Tiersen / EUSA
Формат записи/Источник записи: [TR24][OF]
Наличие водяных знаков: Нет
Год издания/переиздания диска: 2016
Жанр: Piano, Neoclassical
Издатель (лейбл): Mute
Продолжительность: 00:57:15
Наличие сканов в содержимом раздачи: Только обложка альбома
Треклист:
01. Hent I (2:56)
02. Pern (4:27)
03. Hent II (1:15)
04. Porz Goret (4:56)
05. Lok Gweltaz (3:50)
06. Hent III (0:54)
07. Penn ar Roc'h (3:04)
08. Hent IV (3:22)
09. Kereon (2:45)
10. Hent V (1:08)
11. Yuzin (3:05)
12. Roc'h ar Vugale (6:15)
13. Hent VI (0:43)
14. Penn ar Lann (3:58)
15. Hent VII (1:44)
16. Enez Nein (5:05)
17. Kadoran (1:18)
18. Hent VIII (6:30)
Контейнер: FLAC (*.flac)
Тип рипа: tracks
Разрядность: 24/96
Формат: WAV (flac.ape.wv)
Количество каналов: 2.0

Лог проверки качества

foobar2000 1.3.8 / Замер динамического диапазона (DR) 1.1.1Дата отчёта:  2018-01-14 22:42:26
--------------------------------------------------------------------------------Анализ: Yann Tiersen / EUSA--------------------------------------------------------------------------------
DR Пики RMS Продолжительность трека--------------------------------------------------------------------------------DR17 -2.05 дБ -24.04 дБ 2:56 01-Hent IDR11 -0.50 дБ -15.37 дБ 4:27 02-PernDR11 -7.58 дБ -24.15 дБ 1:15 03-Hent IIDR11 -2.90 дБ -18.62 дБ 4:56 04-Porz GoretDR11 -3.46 дБ -20.19 дБ 3:50 05-Lok GweltazDR11 -8.40 дБ -22.93 дБ 0:54 06-Hent IIIDR11 -0.50 дБ -15.94 дБ 3:04 07-Penn ar Roc'hDR12 -6.91 дБ -22.43 дБ 3:22 08-Hent IVDR12 -0.50 дБ -15.14 дБ 2:45 09-KereonDR12 -8.19 дБ -24.52 дБ 1:08 10-Hent VDR11 -1.46 дБ -16.03 дБ 3:05 11-YuzinDR11 -1.70 дБ -16.94 дБ 6:15 12-Roc'h ar VugaleDR11 -11.33 дБ -26.49 дБ 0:43 13-Hent VIDR11 -0.50 дБ -15.35 дБ 3:58 14-Penn ar LannDR11 -4.21 дБ -21.06 дБ 1:44 15-Hent VIIDR12 -0.50 дБ -17.53 дБ 5:05 16-Enez NeinDR11 -0.50 дБ -13.57 дБ 1:18 17-KadoranDR13 -0.50 дБ -18.31 дБ 6:30 18-Hent VIII--------------------------------------------------------------------------------
Количество треков: 18Реальные значения DR: DR12
Частота: 96000 ГцКаналов: 2Разрядность: 24Битрейт: 2552 кбит/сКодек: FLAC================================================================================

Скриншот спектра частот

Источник (релизер): http://www.hdtracks.com/eusa



Ви не можете починати теми
Ви не можете відповідати на повідомлення
Ви не можете редагувати свої повідомлення
Ви не можете видаляти свої повідомлення
Ви не можете голосувати в опитуваннях
Ви не можете прикріплювати файли до повідомлень
Ви можете скачувати файли