[TR24][OF] Finghin Collins - Chopin Recital - 2017 (Classical, Piano)


Статистика роздачі [Оновити пиров]
Розмір:  1,03 GB   |    Зареєстрований:  1 рік   |    Скачано:  0 раз

Повного джерела не було: Ніколи

by Паночка ®
09-Бер-2018 20:17


[TR24][OF] Finghin Collins - Chopin Recital - 2017 (Classical, Piano)

Finghin Collins / Chopin Recital
Формат записи/Источник записи: [TR24][OF]
Наличие водяных знаков: Нет
Год издания/переиздания диска: 2017
Жанр: Classical, Piano
Издатель (лейбл): Claves Records
Продолжительность: 01:08:16
Наличие сканов в содержимом раздачи: Буклет PDF + обложка
Треклист:

Chopin: Mazurkas (4), Op. 17
01. Mazurka, Op. 17: I. Vivo e risoluto (2:25)
02. Mazurka, Op. 17: II. Lento, ma non troppo (2:05)
03. Mazurka, Op. 17: III. Legato assai (4:08)
04. Mazurka, Op. 17: IV. Lento, ma non troppo (4:35)
Chopin: Nocturnes (2), Op. 32
05. Nocturnes, Op. 32: I. Andante sostenuto (5:14)
06. Nocturnes, Op. 32: II. Lento (5:29)
Chopin: Prelude Op. 45 in C sharp minor (No. 25)
07. Prelude in C-Sharp Minor, Op. 45: Sostenuto (5:16)
Chopin: Ballade No. 4 in F minor, Op. 52
08. Ballade No. 4 in F Minor, Op. 52: Andante con moto (11:24)
Chopin: Nocturnes (2), Op. 48
09. Nocturnes, Op. 48: I. Lento (6:20)
10. Nocturnes, Op. 48: II. Andantino (7:47)
Chopin: Polonaise No. 7 in A flat major, Op. 61 'Polonaise-fantaisie'
11. Polonaise-Fantaisie in A-Flat Major, Op. 61: Allegro maestoso (13:32)
Контейнер: FLAC (*.flac)
Тип рипа: tracks
Разрядность: 24/96
Формат: WAV (flac.ape.wv)
Количество каналов: 2.0
Источник (релизер): https://www.prestoclassical.co.uk/classical/products/8366679--chopin-recital#related

Лог проверки качества

foobar2000 1.3.8 / Замер динамического диапазона (DR) 1.1.1Дата отчёта:  2018-01-15 15:22:07
--------------------------------------------------------------------------------Анализ: Finghin Collins / Chopin Recital--------------------------------------------------------------------------------
DR Пики RMS Продолжительность трека--------------------------------------------------------------------------------DR11 -3.67 дБ -18.17 дБ 2:25 01-Mazurka, Op. 17: I. Vivo e risolutoDR14 -5.03 дБ -24.01 дБ 2:05 02-Mazurka, Op. 17: II. Lento, ma non troppoDR14 -3.02 дБ -23.28 дБ 4:08 03-Mazurka, Op. 17: III. Legato assaiDR13 -6.63 дБ -26.30 дБ 4:35 04-Mazurka, Op. 17: IV. Lento, ma non troppoDR14 -6.24 дБ -27.02 дБ 5:14 05-Nocturnes, Op. 32: I. Andante sostenutoDR12 -4.82 дБ -23.28 дБ 5:29 06-Nocturnes, Op. 32: II. LentoDR16 -4.41 дБ -27.23 дБ 5:16 07-Prelude in C-Sharp Minor, Op. 45: SostenutoDR13 -0.06 дБ -18.74 дБ 11:24 08-Ballade No. 4 in F Minor, Op. 52: Andante con motoDR14 -0.21 дБ -20.40 дБ 6:20 09-Nocturnes, Op. 48: I. LentoDR15 -4.58 дБ -25.58 дБ 7:47 10-Nocturnes, Op. 48: II. AndantinoDR14 -0.09 дБ -20.07 дБ 13:32 11-Polonaise-Fantaisie in A-Flat Major, Op. 61: Allegro maestoso--------------------------------------------------------------------------------
Количество треков: 11Реальные значения DR: DR14
Частота: 96000 ГцКаналов: 2Разрядность: 24Битрейт: 2160 кбит/сКодек: FLAC================================================================================

Скриншот спектра частот




Ви не можете починати теми
Ви не можете відповідати на повідомлення
Ви не можете редагувати свої повідомлення
Ви не можете видаляти свої повідомлення
Ви не можете голосувати в опитуваннях
Ви не можете прикріплювати файли до повідомлень
Ви можете скачувати файли