[TR24][OF] Der Musikalische Garten - Brescianello: Concerti à 3, Vol. 1 - 2017 (Classical, Violin, Cello, Harpsichord)


Статистика роздачі [Оновити пиров]
Розмір:  1,29 GB   |    Зареєстрований:  1 рік   |    Скачано:  0 раз

Повного джерела не було: Ніколи

by Паночка ®
09-Бер-2018 20:17


[TR24][OF] Der Musikalische Garten - Brescianello: Concerti à 3, Vol. 1 - 2017 (Classical, Violin, Cello, Harpsichord)

Der Musikalische Garten / Brescianello: Concerti à 3, Vol. 1
Формат записи/Источник записи: [TR24][OF]
Наличие водяных знаков: Нет
Год издания/переиздания диска: 2017
Жанр: Classical, Violin, Cello, Harpsichord
Издатель (лейбл): Coviello Classics
Продолжительность: 01:07:26
Наличие сканов в содержимом раздачи: Буклет PDF+обложка
Треклист:
01. Concerto primo in B-Flat Major: I. Adagio (2:45)
02. Concerto primo in B-Flat Major: II. Allegro (2:55)
03. Concerto primo in B-Flat Major: III. Adagio (3:18)
04. Concerto primo in B-Flat Major: IV. Allegro (4:37)
05. Concerto secondo in G Major: I. Largo (1:52)
06. Concerto secondo in G Major: II. Allegro (3:22)
07. Concerto secondo in G Major: III. Adagio (1:55)
08. Concerto secondo in G Major: IV. Allegro (2:12)
09. Concerto terzo in G Minor: I. Largo-Allegro-Presto-Adagio-Allegro-Adagio (3:23)
10. Concerto terzo in G Minor: II. Allegro (3:02)
11. Concerto terzo in G Minor: III. Adagio (2:53)
12. Concerto terzo in G Minor: IV. Presto (2:22)
13. Concerto quarto in E-Flat Major: I. Grave-Presto-Adagio-Presto-Adagio (1:52)
14. Concerto quarto in E-Flat Major: II. Fuga (3:09)
15. Concerto quarto in E-Flat Major: III. Adagio (2:24)
16. Concerto quarto in E-Flat Major: IV. Presto (2:36)
17. Concerto quinto in A Major: I. Adagio (3:07)
18. Concerto quinto in A Major: II. Allegro (1:56)
19. Concerto quinto in A Major: III. Adagio cantabile (3:35)
20. Concerto quinto in A Major: IV. Allegro (2:02)
21. Concerto sesto in B Minor: I. Largo (3:25)
22. Concerto sesto in B Minor: II. Allegro (2:58)
23. Concerto sesto in B Minor: III. Adagio (2:44)
24. Concerto sesto in B Minor: IV. Presto (3:03)-Контейнер: FLAC (*.flac)
Тип рипа: tracks
Разрядность: 24/96
Формат: WAV (flac.ape.wv)
Количество каналов: 2.0
Источник: https://www.7digital.com/artist/der-musikalische-garten/release/brescianello-conc...-3-vol-1-6478964

Лог проверки качества

foobar2000 1.3.8 / Замер динамического диапазона (DR) 1.1.1Дата отчёта:  2018-01-17 00:45:29
--------------------------------------------------------------------------------Анализ: Der Musikalische Garten / Brescianello: Concerti à 3, Vol. 1--------------------------------------------------------------------------------
DR Пики RMS Продолжительность трека--------------------------------------------------------------------------------DR12 -7.00 дБ -23.00 дБ 2:45 01-Concerto primo in B-Flat Major: I. AdagioDR14 -3.86 дБ -21.59 дБ 2:55 02-Concerto primo in B-Flat Major: II. AllegroDR14 -3.85 дБ -24.10 дБ 3:18 03-Concerto primo in B-Flat Major: III. AdagioDR13 -2.41 дБ -21.24 дБ 4:37 04-Concerto primo in B-Flat Major: IV. AllegroDR12 -8.42 дБ -24.90 дБ 1:52 05-Concerto secondo in G Major: I. LargoDR12 -4.11 дБ -21.51 дБ 3:22 06-Concerto secondo in G Major: II. AllegroDR12 -9.64 дБ -25.33 дБ 1:55 07-Concerto secondo in G Major: III. AdagioDR13 -4.41 дБ -22.12 дБ 2:12 08-Concerto secondo in G Major: IV. AllegroDR13 -0.95 дБ -21.05 дБ 3:23 09-Concerto terzo in G Minor: I. Largo-Allegro-Presto-Adagio-Allegro-AdagioDR13 -0.06 дБ -20.16 дБ 3:02 10-Concerto terzo in G Minor: II. AllegroDR12 -9.38 дБ -26.87 дБ 2:53 11-Concerto terzo in G Minor: III. AdagioDR14 -3.33 дБ -20.80 дБ 2:22 12-Concerto terzo in G Minor: IV. PrestoDR11 -4.09 дБ -19.88 дБ 1:52 13-Concerto quarto in E-Flat Major: I. Grave-Presto-Adagio-Presto-AdagioDR12 -2.38 дБ -19.94 дБ 3:09 14-Concerto quarto in E-Flat Major: II. FugaDR12 -8.15 дБ -24.41 дБ 2:24 15-Concerto quarto in E-Flat Major: III. AdagioDR13 -3.71 дБ -20.14 дБ 2:36 16-Concerto quarto in E-Flat Major: IV. PrestoDR12 -5.86 дБ -22.20 дБ 3:07 17-Concerto quinto in A Major: I. AdagioDR13 -2.52 дБ -22.24 дБ 1:56 18-Concerto quinto in A Major: II. AllegroDR12 -4.76 дБ -23.48 дБ 3:35 19-Concerto quinto in A Major: III. Adagio cantabileDR14 -4.63 дБ -22.00 дБ 2:02 20-Concerto quinto in A Major: IV. AllegroDR13 -4.20 дБ -22.90 дБ 3:25 21-Concerto sesto in B Minor: I. LargoDR13 -3.02 дБ -21.52 дБ 2:58 22-Concerto sesto in B Minor: II. AllegroDR12 -6.05 дБ -24.17 дБ 2:44 23-Concerto sesto in B Minor: III. AdagioDR13 -4.41 дБ -20.87 дБ 3:03 24-Concerto sesto in B Minor: IV. Presto--------------------------------------------------------------------------------
Количество треков: 24Реальные значения DR: DR13
Частота: 96000 ГцКаналов: 2Разрядность: 24Битрейт: 2814 кбит/сКодек: FLAC================================================================================

Скриншот спектра частот




Ви не можете починати теми
Ви не можете відповідати на повідомлення
Ви не можете редагувати свої повідомлення
Ви не можете видаляти свої повідомлення
Ви не можете голосувати в опитуваннях
Ви не можете прикріплювати файли до повідомлень
Ви можете скачувати файли