[TR24][OF] Bach — Sonatas for Violin & Harpsichord, BWV 1014, 1015, 1016, 1017, 1018, 1019 (Isabelle Faust, Kristian Bezuidenhout) - 2018 (Classical)


Статистика роздачі [Оновити пиров]
Розмір:  1,8 GB   |    Зареєстрований:  1 рік   |    Скачано:  0 раз

Повного джерела не було: Ніколи

by Паночка ®
09-Бер-2018 20:17


[TR24][OF] Bach — Sonatas for Violin & Harpsichord, BWV 1014, 1015, 1016, 1017, 1018, 1019 (Isabelle Faust, Kristian Bezuidenhout) - 2018 (Classical)

J.S. Bach
Sonatas for Violin & Harpsichord

Harmonia Mundi · No. HMM90225657 · 2018 · web
FLAC · 24 bit · 96 khz  ·  01:27:35 · booklet 
Isabelle Faust..........................violin
Kristian Bezuidenhout..............harpsichord-

Tracklist

01-04. Sonata No. 1 in B Minor, BWV 101405-08. Sonata No. 2 in A Major, BWV 101509-12. Sonata No. 3 in E Major, BWV 101613-16. Sonata No. 4 in C Minor, BWV 101717-20. Sonata No. 5 in F Minor, BWV 101821-25. Sonata No. 6 in G Major, BWV 1019

log

foobar2000 1.3.15 / Dynamic Range Meter 1.1.1log date: 2018-01-19 19:53:17
--------------------------------------------------------------------------------Analyzed: Isabelle Faust and Kristian Bezuidenhout / J.S. Bach: Sonatas for Violin and Harpsichord (1) Isabelle Faust / J.S. Bach: Sonatas for Violin and Harpsichord (2-25)--------------------------------------------------------------------------------
DR Peak RMS Duration Track--------------------------------------------------------------------------------DR15 -0.21 dB -21.04 dB 3:10 01-Sonata No. 1 in B Minor, BWV 1014: I. AdagioDR13 -3.70 dB -19.22 dB 2:57 02-Sonata No. 1 in B Minor, BWV 1014: II. AllegroDR15 -3.62 dB -21.48 dB 2:50 03-Sonata No. 1 in B Minor, BWV 1014: III. AndanteDR13 -0.23 dB -17.10 dB 3:09 04-Sonata No. 1 in B Minor, BWV 1014: IV. AllegroDR14 -4.25 dB -22.74 dB 2:58 05-Sonata No. 2 in A Major, BWV 1015: I. [Largo]DR13 -2.37 dB -19.11 dB 2:56 06-Sonata No. 2 in A Major, BWV 1015: II. AllegroDR12 -6.82 dB -22.72 dB 2:43 07-Sonata No. 2 in A Major, BWV 1015: III. Andante un pocoDR14 -3.23 dB -19.44 dB 4:12 08-Sonata No. 2 in A Major, BWV 1015: IV. PrestoDR15 -2.36 dB -21.42 dB 3:46 09-Sonata No. 3 in E Major, BWV 1016: I. AdagioDR13 -3.38 dB -20.42 dB 2:58 10-Sonata No. 3 in E Major, BWV 1016: II. AllegroDR13 -3.96 dB -21.76 dB 4:11 11-Sonata No. 3 in E Major, BWV 1016: III. Adagio ma non tantoDR14 -1.08 dB -18.46 dB 3:40 12-Sonata No. 3 in E Major, BWV 1016: IV. AllegroDR13 -3.09 dB -19.67 dB 4:01 01-Sonata No. 4 in C Minor, BWV 1017: I. LargoDR13 -0.86 dB -18.77 dB 4:47 02-Sonata No. 4 in C Minor, BWV 1017: II. AllegroDR13 -0.91 dB -20.15 dB 2:43 03-Sonata No. 4 in C Minor, BWV 1017: III. AdagioDR14 -1.38 dB -18.88 dB 4:44 04-Sonata No. 4 in C Minor, BWV 1017: IV. AllegroDR13 -3.69 dB -21.58 dB 6:23 05-Sonata No. 5 in F Minor, BWV 1018: I. [Largo]DR14 -1.72 dB -18.81 dB 4:39 06-Sonata No. 5 in F Minor, BWV 1018: II. AllegroDR12 -5.32 dB -20.40 dB 2:23 07-Sonata No. 5 in F Minor, BWV 1018: III. AdagioDR13 -0.23 dB -18.02 dB 2:30 08-Sonata No. 5 in F Minor, BWV 1018: IV. VivaceDR14 -1.13 dB -18.14 dB 3:22 09-Sonata No. 6 in G Major, BWV 1019: I. AllegroDR12 -7.33 dB -22.77 dB 1:32 10-Sonata No. 6 in G Major, BWV 1019: II. LargoDR12 -6.57 dB -23.09 dB 4:37 11-Sonata No. 6 in G Major, BWV 1019: III. AllegroDR12 -8.00 dB -22.85 dB 3:00 12-Sonata No. 6 in G Major, BWV 1019: IV. AdagioDR14 -0.26 dB -17.20 dB 3:23 13-Sonata No. 6 in G Major, BWV 1019: V. Allegro--------------------------------------------------------------------------------
Number of tracks: 25Official DR value: DR13
Samplerate: 96000 HzChannels: 2Bits per sample: 24Bitrate: 3033 kbpsCodec: FLAC================================================================================

range

1.01 Sonata No. 1 in B Minor, BWV 1014 I. Adagio.flac



Ви не можете починати теми
Ви не можете відповідати на повідомлення
Ви не можете редагувати свої повідомлення
Ви не можете видаляти свої повідомлення
Ви не можете голосувати в опитуваннях
Ви не можете прикріплювати файли до повідомлень
Ви можете скачувати файли