[TR24][OF] Porpora: Germanico in Germania (Max Emanuel Cencic, Julia Lezhneva, Mary-Ellen Nesi, Juan Sancho, Dilyara Idrisova, Hasnaa Bennani/Capella Cracoviensis, Jan Tomasz Adamus - 2018 (Classical opera)


Статистика роздачі [Оновити пиров]
Розмір:  3,45 GB   |    Зареєстрований:  1 рік   |    Скачано:  0 раз

Повного джерела не було: Ніколи

by Паночка ®
09-Бер-2018 20:17


[TR24][OF] Porpora: Germanico in Germania (Max Emanuel Cencic, Julia Lezhneva, Mary-Ellen Nesi, Juan Sancho, Dilyara Idrisova, Hasnaa Bennani/Capella Cracoviensis, Jan Tomasz Adamus - 2018 (Classical opera)

Porpora: Germanico in Germania
Формат записи/Источник записи: [TR24][OF]
Наличие водяных знаков: Нет
Год издания/переиздания диска: 2018
Жанр: Classical opera
Издатель (лейбл): Decca
Продолжительность: 03:37:00
Наличие сканов в содержимом раздачи: Буклет PDF
Контейнер: FLAC (*.flac)
Тип рипа: tracks
Разрядность: 24/96
Формат: PCM
Количество каналов: 2.0

Треклист:

ATTO PRIMO
1 Sinfonia 1:43
2 Adagio 1:19
3 Menuetto 0:54
4 Recitativo: Miseri oh Dio! noi siam perduti - Rosmonda, Arminio 3:02
5 Aria: Serba costante il core - Arminio 5:12
6 Recitativo: Ecco s’appressa il vincitor superbo - Rosmonda 0:21
7 Sinfonia 0.54
8 Recitativo: O Germanico invitto - Segeste, Germanico, Rosmonda 4:15
9 Aria: Rivolgi a me le ciglia - Rosmonda 3:21
10 Recitativo: Per vincere, signor, la sua fierezza usa del tuo potere - Segeste, Germanico, Cecina 2:14
11 Aria: Questo è il valor guerriero d’un’anima romana? - Germanico 5:01
12 Recitativo: Germanico fu troppo facile in condannarmi - Cecina, Ersinda 1:59
13 Aria: Al sole i lumi pria mancheranno - Ersinda 4:53
14 Recitativo: Chi più di me felice? - Cecina 0:29
15 Aria: Splende per mille amanti un bel sereno volto - Cecina 5:38
16 Recitativo: Venga di Roma il messaggier - Arminio, Segeste 5:16
17 Aria: A lei, che il mondo adora - Arminio 3:16
18 Recitativo: Perché a danno di Roma - Segeste 0:19
19 Aria: Nocchier, che mai non vide l’orror della tempesta - Segeste 3:27
20 Recitativo: Lascia Rosmonda - Ersinda, Rosmonda 1:45
21 Aria: Se sposa d’un Romano - Ersinda 4:09
22 Recitativo: Ecco la donna altera - Germanico, Rosmonda
Recitativo: Signor, dal campo ritornò - Segeste 3:41
23 Aria: Qual turbine - Germanico 4:22
24 Recitativo: Dunque sarà pur vero che lasciar tu non voglia sì barbaro pensiero? - Segeste, Rosmonda 2:00
25 Accompagnato: Sposa infelice, sventurata figlia - Rosmonda 0:47
26 Aria: Son qual misero naviglio - Rosmonda 5:23
ATTO SECONDO
27 Recitativo: Romani invitti - Germanico, Arminio 2:08
28 Accompagnato: Ingiustissime stelle, avete vinto! - Arminio, Cecina 3:03
29 Aria: Empi, se mai disciolgo - Arminio 2:54
30 Recitativo: Dopo la gran battaglia a te ritorno - Cecina 0:25
31 Aria: Se dopo ria procella - Cecina 6:27
32 Recitativo: Or ch’arde l’aspra e sanguinosa pugna - Rosmonda, Ersinda
Recitativo: Qual novella contesa a te le gote di rossor dipinge - Segeste, Ersinda, Rosmonda 2:28
33 Aria: Il padre mi sgrida - Rosmonda 2:58
34 Recitativo: Si sdegna il padre - Ersinda 0:23
35 Aria: Veder vicino il suo contento - Ersinda 3:08
36 Marcia 0:47
37 Recitativo: Questo è il felice giorno - Germanico, Segeste, Cecina, Arminio 3:19
38 Aria: Nasce da valle impura vapor che in alto ascende - Germanico 6:32
39 Recitativo: Cieli! Il mio sposo è questo - Rosmonda, Arminio 3:56
40 Aria: Parto, ti lascio, o cara - Arminio 10:45
41 Recitativo: Dovunque volgo, o misera, le ciglia - Rosmonda 0:32
42 Aria: Priva del caro sposo - Rosmonda 4:31
43 Recitativo: Pur ti riveggo alfin, diletto amante - Ersinda, Cecina 1:39
44 Aria: Serbami la tua fede - Cecina 6:32
45 Recitativo: O del mio caro ben voci gradite - Ersinda 0:25
46 Aria: Sorge dall’onde - Ersinda 4:08
47 Recitativo: Segeste, e come soffre la tua Germania la vittoria nostra? - Germanico, Segeste 1:29
48 Aria: Scoglio alpestre in mezzo all’onde - Segeste 4:16
49 Recitativo: Giungi a tempo, Rosmonda - Germanico, Rosmonda
Recitativo: Eccomi un’altra volta a te davante - Arminio, Germanico, Rosmonda 6:55
50 Terzetto: Temi lo sdegno mio, perfido traditore - Germanico, Arminio, Rosmonda 4:44
ATTO TERZO
51 Recitativo: Fido Segeste - Germanico, Segeste, Ersinda
Recitativo: Che ascolto, ohimè! Ferma, sospendi ancora la sentenza - Rosmonda, Germanico, Segeste, Ersinda 4:41
52 Aria: Dite, che far degg’io? - Rosmonda 3:05
53 Recitativo: Già l’affetto di sposa - Germanico, Ersinda 0:46
54 Aria: Per un momento ancora - Germanico 4:50
55 Recitativo: Qual tristo evento mai - Cecina, Ersinda 0:52
56 Aria: Se possono i tuoi rai vedermi ognor penar - Ersinda 3:45
57 Recitativo: Quanto esser cauto deve un infelice amante - Cecina 0:34
58 Aria: Serbare amore e fede - Cecina 6:28
59 Recitativo accompagnato: Nemica del valor barbara sorte! - Arminio 1:53
60 Recitativo: All’aura fosca e grave - Rosmonda, Arminio, Segeste 7:12
61 Accompagnato: Empi - Segeste 0:30
62 Recitativo: Ecco ch’è giunto al fine il momento fatal della tua morte - Rosmonda, Arminio 0:52
63 Duetto: Se viver non poss’io - Arminio, Rosmonda 6:28
64 Recitativo: Ecco il bosco funesto - Segeste, Ersinda 0:52
65 Aria: Saggio è il cultor - Segeste 3:28
66 Recitativo: Vieni superbo e mira la gran pompa terribile e funesta - Germanico, Rosmonda, Arminio, Segeste, Cecina, Ersinda 1:26
67 Accompagnato: Vindice Dea - Arminio 1:57
68 Recitativo: E ancor l’ultime voci - Germanico, Segeste, Cecina, Arminio, Rosmonda 7:28
69 Coro: Sì verrà l’amico giorno Tutti 0:53

Исполнители

NICOLA ANTONIO PORPORA 1686–1768GERMANICO IN GERMANIADramma per musica in tre attiLibretto · Livret: Nicola Coluzzi
Germanico - Max Emanuel Cenčić (counter-tenor)Ersinda - Julia Lezhneva (soprano)Arminio - Mary-Ellen Nesi (mezzo-soprano)Segeste - Juan Sancho (tenor)Rosmonda - Dilyara Idrisova (soprano)Cecina - Hasnaa Bennani (soprano)
Capella Cracoviensison period instrumentsJan Tomasz Adamus

Лог проверки качества

foobar2000 1.3.14 / Замер динамического диапазона (DR) 1.1.1Дата отчёта:  2018-01-20 16:20:20
--------------------------------------------------------------------------------Анализ: Capella Cracoviensis/Wojtech Gruszka/Giovanni Prosdocimi/Giovanni Prosdocimi / Porpora: Germanico in Germania (1-5) Dilyara Idrisova/Capella Cracoviensis/Juan Sancho/Julia Lezhneva/Wojtech Gruszka/Giovanni Prosdocimi/Giovanni Prosdocimi / Porpora: Germanico in Germania (6) Dilyara Idrisova/Capella Cracoviensis/Juan Sancho/Wojtech Gruszka/Giovanni Prosdocimi/Giovanni Prosdocimi / Porpora: Germanico in Germania (7-8) Dilyara Idrisova/Capella Cracoviensis/Julia Lezhneva/Wojtech Gruszka/Giovanni Prosdocimi/Giovanni Prosdocimi / Porpora: Germanico in Germania (9) Dilyara Idrisova/Capella Cracoviensis/Wojtech Gruszka/Giovanni Prosdocimi/Giovanni Prosdocimi / Porpora: Germanico in Germania (10-19) Hasnaa Bennani/Capella Cracoviensis/Julia Lezhneva/Wojtech Gruszka/Giovanni Prosdocimi/Giovanni Prosdocimi / Porpora: Germanico in Germania (20-22) Hasnaa Bennani/Capella Cracoviensis/Wojtech Gruszka/Giovanni Prosdocimi/Giovanni Prosdocimi / Porpora: Germanico in Germania (23-29) Juan Sancho/Capella Cracoviensis/Wojtech Gruszka/Giovanni Prosdocimi/Giovanni Prosdocimi / Porpora: Germanico in Germania (30-34) Julia Lezhneva/Capella Cracoviensis/Juan Sancho/Wojtech Gruszka/Giovanni Prosdocimi/Giovanni Prosdocimi / Porpora: Germanico in Germania (35) Julia Lezhneva/Capella Cracoviensis/Wojtech Gruszka/Giovanni Prosdocimi/Giovanni Prosdocimi / Porpora: Germanico in Germania (36-42) Mary-Ellen Nesi/Capella Cracoviensis/Dilyara Idrisova/Wojtech Gruszka/Giovanni Prosdocimi/Giovanni Prosdocimi / Porpora: Germanico in Germania (43-45) Mary-Ellen Nesi/Capella Cracoviensis/Wojtech Gruszka/Giovanni Prosdocimi/Giovanni Prosdocimi / Porpora: Germanico in Germania (46-53) Max Emanuel Cencic/Capella Cracoviensis/Dilyara Idrisova/Mary-Ellen Nesi/Wojtech Gruszka/Giovanni Prosdocimi/Giovanni Prosdocimi / Porpora: Germanico in Germania (54-55) Max Emanuel Cencic/Capella Cracoviensis/Juan Sancho/Dilyara Idrisova/Wojtech Gruszka/Giovanni Prosdocimi/Giovanni Prosdocimi / Porpora: Germanico in Germania (56) Max Emanuel Cencic/Capella Cracoviensis/Juan Sancho/Hasnaa Bennani/Wojtech Gruszka/Giovanni Prosdocimi/Giovanni Prosdocimi / Porpora: Germanico in Germania (57-58) Max Emanuel Cencic/Capella Cracoviensis/Juan Sancho/Julia Lezhneva/Wojtech Gruszka/Giovanni Prosdocimi/Giovanni Prosdocimi / Porpora: Germanico in Germania (59) Max Emanuel Cencic/Capella Cracoviensis/Julia Lezhneva/Juan Sancho/Hasnaa Bennani/Mary-Ellen Nesi/Dilyara Idrisova/Wojtech Gruszka/Giovanni Prosdocimi/Giovanni Prosdocimi / Porpora: Germanico in Germania (60-62) Max Emanuel Cencic/Capella Cracoviensis/Julia Lezhneva/Wojtech Gruszka/Giovanni Prosdocimi/Giovanni Prosdocimi / Porpora: Germanico in Germania (63) Max Emanuel Cencic/Capella Cracoviensis/Mary-Ellen Nesi/Wojtech Gruszka/Giovanni Prosdocimi/Giovanni Prosdocimi / Porpora: Germanico in Germania (64) Max Emanuel Cencic/Capella Cracoviensis/Wojtech Gruszka/Giovanni Prosdocimi/Giovanni Prosdocimi / Porpora: Germanico in Germania (65-69)--------------------------------------------------------------------------------
DR Пики RMS Продолжительность трека--------------------------------------------------------------------------------DR10 -0.01 дБ -12.17 дБ 1:43 01-Germanico in Germania: SinfoniaDR10 -3.08 дБ -19.19 дБ 1:19 02-Germanico in Germania: AdagioDR11 -0.01 дБ -14.21 дБ 0:54 03-Germanico in Germania: MenuettoDR13 -2.02 дБ -18.61 дБ 3:02 04-Germanico in Germania: 'Miseri oh Dio! noi siam perduti'DR12 -0.01 дБ -14.59 дБ 5:12 05-Germanico in Germania: 'Serba costante il core'DR11 -3.82 дБ -19.62 дБ 0:21 06-Germanico in Germania: 'Ecco s’appressa il vincitor superbo'DR12 -0.01 дБ -13.39 дБ 0:54 07-Germanico in Germania: Sinfonia Scene 2DR14 -1.52 дБ -19.61 дБ 4:15 08-Germanico in Germania: 'O Germanico invitto'DR12 -0.01 дБ -15.31 дБ 3:21 09-Germanico in Germania: 'Rivolgi a me le ciglia'DR13 -3.50 дБ -19.88 дБ 2:14 10-Germanico in Germania: 'Per vincere, signor, la sua fierezza usa del tuo potere'DR12 -0.01 дБ -14.25 дБ 5:01 11-Germanico in Germania: 'Questo è il valor guerriero d’un’anima romana?'DR13 -1.98 дБ -18.99 дБ 1:59 12-Germanico in Germania: 'Germanico fu troppo facile in condannarmi'DR11 -0.01 дБ -14.11 дБ 4:53 13-Germanico in Germania: 'Al sole i lumi pria mancheranno'DR12 -5.38 дБ -19.49 дБ 0:29 14-Germanico in Germania: 'Chi più di me felice?'DR12 -0.01 дБ -14.47 дБ 5:38 15-Germanico in Germania: 'Splende per mille amanti un bel sereno volto'DR13 -2.55 дБ -18.72 дБ 5:16 16-Germanico in Germania: 'Venga di Roma il messaggier'DR11 -0.01 дБ -13.71 дБ 3:16 17-Germanico in Germania: 'A lei, che il mondo adora'DR12 -2.22 дБ -18.80 дБ 0:19 18-Germanico in Germania: 'Perché a danno di Roma'DR12 -0.01 дБ -14.15 дБ 3:27 19-Germanico in Germania: 'Nocchier, che mai non vide l’orror della tempesta'DR12 -3.47 дБ -18.74 дБ 1:45 20-Germanico in Germania: 'Lascia Rosmonda'DR11 -0.01 дБ -13.49 дБ 4:09 21-Germanico in Germania: 'Se sposa d’un Romano'DR13 -2.44 дБ -19.12 дБ 3:41 22-Germanico in Germania: 'Ecco la donna altera'DR12 -0.01 дБ -13.68 дБ 4:22 23-Germanico in Germania: 'Qual turbine'DR12 -4.46 дБ -19.08 дБ 2:00 24-Germanico in Germania: 'Dunque sarà pur vero che lasciar tu non voglia sì barbaro pensiero?'DR12 -0.77 дБ -14.90 дБ 0:47 25-Germanico in Germania: 'Sposa infelice, sventurata figlia'DR12 -0.13 дБ -13.89 дБ 5:24 26-Germanico in Germania: 'Son qual misero naviglio'DR13 -1.30 дБ -17.83 дБ 2:08 27-Germanico in Germania: 'Romani invitti'DR12 -0.01 дБ -14.98 дБ 3:03 28-Germanico in Germania: 'Ingiustissime stelle, avete vinto!'DR10 -0.01 дБ -12.81 дБ 2:55 29-Germanico in Germania: 'Empi, se mai disciolgo'DR13 -5.27 дБ -20.53 дБ 0:25 30-Germanico in Germania: 'Dopo la gran battaglia a te ritorno'DR11 -0.01 дБ -13.53 дБ 6:27 31-Germanico in Germania: 'Se dopo ria procella'DR12 -2.88 дБ -18.54 дБ 2:28 32-Germanico in Germania: 'Or ch’arde l’aspra e sanguinosa pugna'DR11 -0.01 дБ -14.04 дБ 2:58 33-Germanico in Germania: 'Il padre mi sgrida'DR10 -4.91 дБ -18.27 дБ 0:24 34-Germanico in Germania: 'Si sdegna il padre'DR12 -0.01 дБ -13.97 дБ 3:08 35-Germanico in Germania: 'Veder vicino il suo contento'DR11 -0.01 дБ -12.53 дБ 0:48 36-Germanico in Germania: MarciaDR13 -1.73 дБ -17.01 дБ 3:19 37-Germanico in Germania: 'Questo è il felice giorno'DR11 -0.79 дБ -15.38 дБ 6:32 38-Germanico in Germania: 'Nasce da valle impura vapor che in alto ascende'DR12 -1.96 дБ -18.22 дБ 3:56 39-Germanico in Germania: 'Cieli! Il mio sposo è questo'DR11 -0.01 дБ -15.90 дБ 10:45 40-Germanico in Germania: 'Parto, ti lascio, o cara'DR11 -5.33 дБ -20.56 дБ 0:33 41-Germanico in Germania: 'Dovunque volgo, o misera, le ciglia'DR11 -1.21 дБ -15.82 дБ 4:31 42-Germanico in Germania: 'Priva del caro sposo'DR12 -3.82 дБ -21.63 дБ 1:39 43-Germanico in Germania: 'Pur ti riveggo alfin, diletto amante'DR11 -1.59 дБ -16.20 дБ 6:32 44-Germanico in Germania: 'Serbami la tua fede'DR11 -3.00 дБ -20.41 дБ 0:26 45-Germanico in Germania: 'O del mio caro ben voci gradite'DR12 -0.01 дБ -14.29 дБ 4:08 46-Germanico in Germania: 'Sorge dall’onde'DR13 -2.84 дБ -18.88 дБ 1:29 47-Germanico in Germania: 'Segeste, e come soffre la tua Germania la vittoria nostra?'DR12 -0.01 дБ -14.38 дБ 4:16 48-Germanico in Germania: 'Scoglio alpestre in mezzo all’onde'DR14 -0.18 дБ -16.95 дБ 6:55 49-Germanico in Germania: 'Giungi a tempo, Rosmonda...Eccomi un’altra volta a te davante'DR11 -0.01 дБ -12.91 дБ 4:44 50-Germanico in Germania: 'Temi lo sdegno mio, perfido traditore'DR13 -1.07 дБ -18.01 дБ 4:41 51-Germanico in Germania: 'Fido Segeste'DR11 -1.20 дБ -14.77 дБ 3:05 52-Germanico in Germania: 'Dite, che far degg’io?'DR12 -3.28 дБ -18.91 дБ 0:46 53-Germanico in Germania: 'Già l’affetto di sposa'DR13 -0.04 дБ -15.46 дБ 4:50 54-Germanico in Germania: 'Per un momento ancora'DR11 -4.32 дБ -20.17 дБ 0:53 55-Germanico in Germania: 'Qual tristo evento mai'DR11 -0.01 дБ -14.08 дБ 3:45 56-Germanico in Germania: 'Se possono i tuoi rai vedermi ognor penar'DR10 -4.39 дБ -20.80 дБ 0:34 57-Germanico in Germania: 'Quanto esser cauto deve un infelice amante'DR11 -1.03 дБ -15.53 дБ 6:28 58-Germanico in Germania: 'Serbare amore e fede'DR12 -0.01 дБ -14.39 дБ 1:53 59-Germanico in Germania: 'Nemica del valor barbara sorte!'DR13 -1.71 дБ -17.81 дБ 7:13 60-Germanico in Germania: 'All’aura fosca e grave'DR11 -0.75 дБ -14.44 дБ 0:30 61-Germanico in Germania: 'Empi'DR11 -4.99 дБ -20.37 дБ 0:52 62-Germanico in Germania: 'Ecco ch’è giunto al fine il momento fatal della tua morte'DR11 -0.01 дБ -13.94 дБ 6:29 63-Germanico in Germania: 'Se viver non poss’io'DR13 -2.87 дБ -19.01 дБ 0:52 64-Germanico in Germania: 'Ecco il bosco funesto'DR12 -0.57 дБ -15.29 дБ 3:28 65-Germanico in Germania: 'Saggio è il cultor'DR12 -0.48 дБ -16.50 дБ 1:26 66-Germanico in Germania: 'Vieni superbo e mira la gran pompa terribile e funesta'DR11 -0.01 дБ -14.78 дБ 1:57 67-Germanico in Germania: 'Vindice Dea'DR12 -0.89 дБ -16.55 дБ 7:28 68-Germanico in Germania: 'E ancor l’ultime voci'DR8 -0.01 дБ -10.25 дБ 0:53 69-Germanico in Germania: 'Sì verrà l’amico giorno'--------------------------------------------------------------------------------
Количество треков: 69Реальные значения DR: DR12
Частота: 96000 ГцКаналов: 2Разрядность: 24Битрейт: 2760 кбит/сКодек: FLAC================================================================================

Скриншот спектра частот



Доп. информация

THE WORLD PREMIERE RECORDING OF A LOST MASTERPIECE
In this world premiere recording, Max Emanuel Cencic unearths Porpora’s opera Germanico in Germania.
Cencic is supported by a world-class cast, including star soprano Julia Lezhneva, and Capella Cracoviensis under the baton of Jan Tomasz Adamus.
Performed on period instruments from a brand new edition, this is a highly authoritative recording.
"Mr Cencic is blessed with the finest countertenor voice of our day." Opernwelt
Источник (релизер): https://www.prestoclassical.co.uk/classical/products/8389410--porpora-germanico-in-germania



Ви не можете починати теми
Ви не можете відповідати на повідомлення
Ви не можете редагувати свої повідомлення
Ви не можете видаляти свої повідомлення
Ви не можете голосувати в опитуваннях
Ви не можете прикріплювати файли до повідомлень
Ви можете скачувати файли