[TR24][OF] Lucas Debargue - Schubert & Szymanowski: Piano Sonatas - 2017 (Classical, Piano)


Статистика роздачі [Оновити пиров]
Розмір:  1,04 GB   |    Зареєстрований:  1 рік   |    Скачано:  0 раз

Повного джерела не було: Ніколи

by Паночка ®
09-Бер-2018 20:17


[TR24][OF] Lucas Debargue - Schubert & Szymanowski: Piano Sonatas - 2017 (Classical, Piano)

Lucas Debargue - Schubert & Szymanowski: Piano Sonatas
Формат записи/Источник записи: [TR24][OF]
Наличие водяных знаков: Нет
Год издания/переиздания диска: 2017
Жанр: Classical, Piano
Издатель (лейбл): Sony Classical
Продолжительность: 01:07:46
Наличие сканов в содержимом раздачи: Буклет PDF+обложка
Треклист:
Franz Schubert
01. Piano Sonata No. 14 in A Minor, D. 784: I. Allegro giusto (10:56)
02. Piano Sonata No. 14 in A Minor, D. 784: II. Andante (3:46)
03. Piano Sonata No. 14 in A Minor, D. 784: III. Allegro vivace (4:54)
04. Piano Sonata No. 13 in A Major, D. 664: I. Allegro moderato (8:28)
05. Piano Sonata No. 13 in A Major, D. 664: II. Andante (5:18)
06. Piano Sonata No. 13 in A Major, D. 664: III. Allegro (7:28)
Karol Szymanowski
07. Piano Sonata No. 2 in A Major, Op. 21: I. Allegro assai (9:24)
08. Piano Sonata No. 2 in A Major, Op. 21: II. Allegretto tranquillo (13:42)
09. Piano Sonata No. 2 in A Major, Op. 21: Fuga-Allegro moderato (3:49)
Контейнер: FLAC (*.flac)
Тип рипа: tracks
Разрядность: 24/96
Формат: WAV (flac.ape.wv)
Количество каналов: 2.0
Источник: (обмен) http://i-classical.com/album.html?/schubert-szymanowski-lucas-debargue/0886446594019

Лог проверки качества

foobar2000 1.3.8 / Замер динамического диапазона (DR) 1.1.1Дата отчёта:  2018-01-20 22:20:26
--------------------------------------------------------------------------------Анализ: Lucas Debargue / Schubert & Szymanowski: Piano Sonatas--------------------------------------------------------------------------------
DR Пики RMS Продолжительность трека--------------------------------------------------------------------------------DR15 -0.21 дБ -21.36 дБ 10:56 01-Piano Sonata No. 14 in A Minor, D. 784: I. Allegro giustoDR15 -0.21 дБ -22.69 дБ 3:46 02-Piano Sonata No. 14 in A Minor, D. 784: II. AndanteDR13 -0.18 дБ -18.01 дБ 4:54 03-Piano Sonata No. 14 in A Minor, D. 784: III. Allegro vivaceDR18 -0.38 дБ -24.32 дБ 8:28 04-Piano Sonata No. 13 in A Major, D. 664: I. Allegro moderatoDR18 -3.88 дБ -29.39 дБ 5:18 05-Piano Sonata No. 13 in A Major, D. 664: II. AndanteDR14 -0.21 дБ -19.04 дБ 7:28 06-Piano Sonata No. 13 in A Major, D. 664: III. AllegroDR10 -0.21 дБ -14.87 дБ 9:24 07-Piano Sonata No. 2 in A Major, Op. 21: I. Allegro assaiDR13 -0.21 дБ -18.49 дБ 13:42 08-Piano Sonata No. 2 in A Major, Op. 21: II. Allegretto tranquilloDR10 -0.21 дБ -13.27 дБ 3:49 09-Piano Sonata No. 2 in A Major, Op. 21: Fuga-Allegro moderato--------------------------------------------------------------------------------
Количество треков: 9Реальные значения DR: DR14
Частота: 96000 ГцКаналов: 2Разрядность: 24Битрейт: 2352 кбит/сКодек: FLAC================================================================================

Скриншот спектра частот

Об исполнителе

Люка Дебарг хорошо знаком российскому слушателю: еще в 2015-м он стал одной из главных сенсаций Конкурса Чайковского. Не одержав абсолютной победы, пианист получил нескольких других наград, включая Приз ассоциации музыкальных критиков Москвы. Публику покорил легкий, изобретательный и возвышенный стиль артиста, а также его искренняя любовь к русской классике. Свежая запись искусно комбинирует хиты канонического репертуара с менее популярным материалом. Тон альбому задают широко известные сонаты Шуберта, исполненные звонко и поэтично. Их дополняет возвышенный опус Шимановского, написанный веком позднее и ярко иллюстрирующий многогранный талант солиста. - itunes.apple.com



Ви не можете починати теми
Ви не можете відповідати на повідомлення
Ви не можете редагувати свої повідомлення
Ви не можете видаляти свої повідомлення
Ви не можете голосувати в опитуваннях
Ви не можете прикріплювати файли до повідомлень
Ви можете скачувати файли