[DXD][OF] Tina Margareta Nilssen - Appassionata - 2017 (Classical, Piano)


Статистика роздачі [Оновити пиров]
Розмір:  2,63 GB   |    Зареєстрований:  1 рік   |    Скачано:  0 раз

Повного джерела не було: Ніколи

by Паночка ®
09-Бер-2018 20:17


[DXD][OF] Tina Margareta Nilssen - Appassionata - 2017 (Classical, Piano)

tina margareta nilssen_ appassionata- Формат записи/Источник записи: [DXD][OF]
Наличие водяных знаков: Нет
Год издания/переиздания диска: 2017
Жанр: Classical, Piano
Издатель (лейбл): 2L the Nordic Sound
Продолжительность: 1:00:09
Наличие сканов в содержимом раздачи: Буклет PDF
Треклист:
Edvard Grieg (1843-1907) Sonata No. 1 in E minor, Op. 7
1 I. Allegro moderato 04:26
2 II. Andante molto 04:02
3 III. Alla menuetto, ma poco piu lento 03:17
4 IV. Finale. Molto allegro 06:43
Signe Lund (1868-1950) Cinq Morceaux, Op. 34
5 I. Impromptu 02:21
6 II. Melodie 02:45
7 III. Valse lente 04:56
8 IV. Improvisata 04:00
9 V. Novellette 04:37
Ludwig van Beethoven (1770-1827) Sonata No. 23 in F minor, Op. 57 "Appassionata"
10 I. Allegro assai 10:36
11 II. Andante con moto 06:23
12 III. Allegro, ma non troppo - Presto 05:57

Исполнитель: Tina Margareta Nilssen, piano-Контейнер: FLAC (*.flac)
Тип рипа: tracks
Разрядность: 24/352
Формат: DXD
Количество каналов: 2.0

Official DR value: DR13

foobar2000 1.3.17 / Dynamic Range Meter 1.1.1log date: 2018-01-16 21:33:33
--------------------------------------------------------------------------------Analyzed: Tina Margareta Nilssen / Appassionata--------------------------------------------------------------------------------
DR Peak RMS Duration Track--------------------------------------------------------------------------------DR12 -0.82 dB -17.07 dB 4:27 01-Edvard Grieg: Piano Sonata in E minor, op. 7: I. Allegro moderatoDR13 -0.80 dB -20.21 dB 4:02 02-Edvard Grieg: Piano Sonata in E minor, op. 7: II. Andante moltoDR12 -0.56 dB -17.47 dB 3:17 03-Edvard Grieg: Piano Sonata in E minor, op. 7: III. Alla menuetto, ma poco più lentoDR12 -0.69 dB -16.64 dB 6:44 04-Edvard Grieg: Piano Sonata in E minor, op. 7: IV. Finale. Molto allegroDR13 -1.20 dB -19.50 dB 2:21 05-Signe Lund: Cinq Morceaux, op. 34: I. ImpromptuDR14 -1.35 dB -20.98 dB 2:45 06-Signe Lund: Cinq Morceaux, op. 34: II. MélodieDR13 -2.61 dB -21.22 dB 4:57 07-Signe Lund: Cinq Morceaux, op. 34: III. Valse lenteDR13 -6.82 dB -23.57 dB 4:00 08-Signe Lund: Cinq Morceaux, op. 34: IV. ImprovisataDR13 -0.68 dB -18.62 dB 4:37 09-Signe Lund: Cinq Morceaux, op. 34: V. NovelletteDR12 -0.59 dB -17.71 dB 10:37 10-Ludwig van Beethoven: Piano Sonata no. 23 in F minor, op. 57, ”Appassionata”: I. Allegro assaiDR14 -1.81 dB -22.58 dB 6:23 11-Ludwig van Beethoven: Piano Sonata no. 23 in F minor, op. 57, ”Appassionata”: II. Andante con motoDR12 -0.53 dB -16.50 dB 5:58 12-Ludwig van Beethoven: Piano Sonata no. 23 in F minor, op. 57, ”Appassionata”: III. Allegro, ma non troppo - Presto--------------------------------------------------------------------------------
Number of tracks: 12Official DR value: DR13
Samplerate: 352800 HzChannels: 2Bits per sample: 24Bitrate: 6226 kbpsCodec: FLAC================================================================================

Спектры частот

Об альбоме (сборнике)

In this recording Tina Margareta Nilssen presents three piano works, each with a wide spectrum of expression and intensity. Two of them belong to the standard repertoire, but the third, by Signe Lund, is a practically unknown work, a real gem recorded here for the very first time. The Piano Sonata in E minor is one of Edvard Grieg's most equilibristic and passionate works. Signe Lund's beautiful music guides the listener through Norwegian nature, turbulent stormy weather and the French salons. And in Beethoven's famous "Appassionata" sonata one can hear the struggles and suffering that ultimately led to his creation of a whole new era of music.
Recorded: October 2016, Sofienberg Church, Norway
Produced in DXD (Digital eXtreme Definition 352.8kHz/24bit) by Lindberg Lyd, Norway
Источник (релизер): 2L Music Store-



Ви не можете починати теми
Ви не можете відповідати на повідомлення
Ви не можете редагувати свої повідомлення
Ви не можете видаляти свої повідомлення
Ви не можете голосувати в опитуваннях
Ви не можете прикріплювати файли до повідомлень
Ви можете скачувати файли