[TR24][OF] Mozart — Piano Concerto No. 19, K 459; Concerto for Flute and Harp K. 299; Sonata for Piano No.16, K 545 (Xavier de Maistre, Magali Mosnier, Mozarteumorchster Salzburg, Ivor Bolton) - 2013 (Classical)


Статистика роздачі [Оновити пиров]
Розмір:  672 MB   |    Зареєстрований:  1 рік   |    Скачано:  0 раз

Повного джерела не було: Ніколи

by Паночка ®
09-Бер-2018 20:17


[TR24][OF] Mozart — Piano Concerto No. 19, K 459; Concerto for Flute and Harp K. 299; Sonata for Piano No.16, K 545 (Xavier de Maistre, Magali Mosnier, Mozarteumorchster Salzburg, Ivor Bolton) - 2013 (Classical)

Mozart
Sony Classical · 88765439922 · 2013 · web
FLAC · 24bit · 48khz · 01:04:03 · booklet
Xavier de Maistre....................harp
Magali Mosnier......................flute
Mozarteumorchster Salzburg...............
Ivor Bolton.....................conductor-

Tracklist

01-03. Piano Concerto in F Major, No. 19, K 45904-06. Concerto for Flute and Harp in C Major, K. 29907-09. Sonata for Piano No.16 in C Major, K 54510. Adagio for Glass Harmonica in C Major, K 617a

log

foobar2000 1.3.15 / Dynamic Range Meter 1.1.1log date: 2018-01-27 05:09:15
--------------------------------------------------------------------------------Analyzed: Xavier de Maistre / Mozart--------------------------------------------------------------------------------
DR Peak RMS Duration Track--------------------------------------------------------------------------------DR12 -0.21 dB -16.63 dB 12:40 01-Piano Concerto in F Major, No. 19, K 459: Allegro vivaceDR14 -1.51 dB -20.26 dB 7:47 02-Piano Concerto in F Major, No. 19, K 459: AllegrettoDR12 -0.59 dB -17.13 dB 8:38 03-Piano Concerto in F Major, No. 19, K 459: Allegro assaiDR12 -0.65 dB -16.18 dB 9:50 04-Concerto for Flute and Harp in C Major, K. 299: AllegroDR13 -1.03 dB -19.58 dB 7:59 05-Concerto for Flute and Harp in C Major, K. 299: AndantinoDR13 -0.10 dB -17.13 dB 9:00 06-Concerto for Flute and Harp in C Major, K. 299: Rondo (Allegro)DR13 -1.95 dB -20.48 dB 2:30 07-Sonata for Piano No.16 in C Major, K 545: AllegroDR13 -6.22 dB -24.40 dB 4:03 08-Sonata for Piano No.16 in C Major, K 545: AndanteDR13 -3.15 dB -19.23 dB 1:50 09-Sonata for Piano No.16 in C Major, K 545: RondoDR14 -6.83 dB -28.32 dB 1:58 10-Adagio for Glass Harmonica in C Major, K 617a--------------------------------------------------------------------------------
Number of tracks: 10Official DR value: DR13
Samplerate: 48000 HzChannels: 2Bits per sample: 24Bitrate: 1235 kbpsCodec: FLAC================================================================================

range

01. Piano Concerto in F Major, No. 19, K 459 Allegro vivace.flac



Ви не можете починати теми
Ви не можете відповідати на повідомлення
Ви не можете редагувати свої повідомлення
Ви не можете видаляти свої повідомлення
Ви не можете голосувати в опитуваннях
Ви не можете прикріплювати файли до повідомлень
Ви можете скачувати файли