[TR24][OF] Vivaldi, Marcello, Porta, Tessarini - Concerto - Venice: The Golden Age (Akademie für Alte Musik Berlin, Georg Kallweit) [2014] (Classical chamber)


Статистика роздачі [Оновити пиров]
Розмір:  1,29 GB   |    Зареєстрований:  1 рік   |    Скачано:  0 раз

Повного джерела не було: Ніколи

by Паночка ®
09-Бер-2018 20:17


[TR24][OF] Vivaldi, Marcello, Porta, Tessarini - Concerto - Venice: The Golden Age (Akademie für Alte Musik Berlin, Georg Kallweit) [2014] (Classical chamber)

Vivaldi, Marcello, Porta, Tessarini / Concerto - Venice: The Golden Age
Формат записи/Источник записи: [TR24][OF]
Наличие водяных знаков: Нет
Год издания/переиздания диска: 2014
Жанр: Classical chamber
Издатель (лейбл): Harmonia Mundi
Продолжительность: 01:08:00
Наличие сканов в содержимом раздачи: Буклет PDF+обложка
Контейнер: FLAC (*.flac)
Тип рипа: tracks
Разрядность: 24/96
Формат: PCM
Количество каналов: 2.0

Tracklist

Rom: Concerto "L'Olimpiade" in C Major for oboe, strings and basso continuo, Quasi-Pasticcio (after Antonio Vivaldi and Carlo Tessarini)01. Allegro ma poco 5:0102. Adagio 5:2803. Allegro 4:18
Vivaldi: Concerto in E Minor for strings and basso continuo, RV 13404. Allegro 2:2605. Andante 1:4906. Allegro 1:27
Marcello, A: Concerto in D Minor for oboe, strings and basso continuo07. Andante e spiccato 3:3808. Adagio 3:1009. Presto 2:40
Porta, G: Sinfonia in D Major for strings, 2 oboes, bassoon and basso continuo10. Allegro - Andante - Adagio 3:2211. Allegro 1:06
Vivaldi: Concerto in B flat major for violin, oboe, strings and basso continuo, after RV 364, RV Anh.1812. [Allegro] 2:4813. Grave 1:2714. Air 2:1415 Allegro 1:40
Vivaldi: Concerto "per Sua Altezza Reale di Sassonia" in G Minor "for violino solo, oboe solo, oboe secondo, due flauti, archi e bassi, RV 57616. Allegro 3:5817. Larghetto 2:1718. Allegro 3:37
Tessarini: Overture in D Major from "La Stravaganza" for strings and basso continuo, Op. 419. Allegro assai 1:4720. Largo sempre piano 2:2721. Presto 1:48
Vivaldi: Concerto in C Major for oboe, strings and basso continuo, RV 45022. Allegro molto 4:0023. Larghetto 3:1224. Allegro 2:49

Лог проверки качества

foobar2000 1.3.14 / Замер динамического диапазона (DR) 1.1.1Дата отчёта:  2018-01-27 17:36:31
--------------------------------------------------------------------------------Анализ: Xenia Löffler, Akademie für Alte Musik Berlin and Georg Kallweit / Concerto - Venice: The Golden Age (1-11) Xenia Löffler, Georg Kallweit and Akademie für Alte Musik Berlin / Concerto - Venice: The Golden Age (12-24)--------------------------------------------------------------------------------
DR Пики RMS Продолжительность трека--------------------------------------------------------------------------------DR14 -1.40 дБ -19.89 дБ 5:01 01-Concerto 'L'Olimpiade' in C Major for oboe, strings and basso continuo, Quasi-Pasticcio (after Antonio Vivaldi and Carlo Tessarini): I. Allegro ma pocoDR12 -5.26 дБ -21.85 дБ 5:28 02-Concerto 'L'Olimpiade' in C Major for oboe, strings and basso continuo, Quasi-Pasticcio (after Antonio Vivaldi and Carlo Tessarini): II. AdagioDR14 -1.46 дБ -20.31 дБ 4:19 03-Concerto 'L'Olimpiade' in C Major for oboe, strings and basso continuo, Quasi-Pasticcio (after Antonio Vivaldi and Carlo Tessarini): III. AllegroDR13 -3.22 дБ -19.61 дБ 2:26 04-Concerto in E Minor for strings and basso continuo, RV 134: I. AllegroDR13 -8.81 дБ -27.85 дБ 1:50 05-Concerto in E Minor for strings and basso continuo, RV 134: II. AndanteDR13 -2.96 дБ -19.97 дБ 1:28 06-Concerto in E Minor for strings and basso continuo, RV 134: III. AllegroDR13 -3.13 дБ -21.21 дБ 3:39 07-Concerto in D Minor for oboe, strings and basso continuo: I. Andante e spiccatoDR12 -5.69 дБ -24.77 дБ 3:10 08-Concerto in D Minor for oboe, strings and basso continuo: II. AdagioDR13 -1.42 дБ -19.66 дБ 2:41 09-Concerto in D Minor for oboe, strings and basso continuo: III. PrestoDR13 -0.30 дБ -18.91 дБ 3:22 10-Sinfonia in D Major for strings, 2 oboes, bassoon and basso continuo: I. Allegro - Andante - AdagioDR13 -2.22 дБ -21.07 дБ 1:06 11-Sinfonia in D Major for strings, 2 oboes, bassoon and basso continuo: II. AllegroDR14 -2.22 дБ -20.04 дБ 2:49 12-Concerto in B flat major for violin, oboe, strings and basso continuo, after RV 364, RV Anh.18: I. [Allegro]DR10 -4.88 дБ -19.12 дБ 1:28 13-Concerto in B flat major for violin, oboe, strings and basso continuo, after RV 364, RV Anh.18: II. GraveDR12 -5.96 дБ -21.97 дБ 2:14 14-Concerto in B flat major for violin, oboe, strings and basso continuo, after RV 364, RV Anh.18: III. AirDR13 -2.93 дБ -19.24 дБ 1:41 15-Concerto in B flat major for violin, oboe, strings and basso continuo, after RV 364, RV Anh.18: IV. AllegroDR14 -0.59 дБ -18.43 дБ 3:58 16-Concerto 'per Sua Altezza Reale di Sassonia' in G Minor 'for violino solo, oboe solo, oboe secondo, due flauti, archi e: I. AllegroDR13 -2.84 дБ -20.10 дБ 2:18 17-Concerto 'per Sua Altezza Reale di Sassonia' in G Minor 'for violino solo, oboe solo, oboe secondo, due flauti, archi e: II. LarghettoDR13 -0.60 дБ -17.72 дБ 3:38 18-Concerto 'per Sua Altezza Reale di Sassonia' in G Minor 'for violino solo, oboe solo, oboe secondo, due flauti, archi e: III. AllegroDR12 -1.70 дБ -20.18 дБ 1:47 19-Overture in D Major from 'La Stravaganza' for strings and basso continuo, Op. 4: I. Allegro assaiDR12 -6.23 дБ -24.52 дБ 2:27 20-Overture in D Major from 'La Stravaganza' for strings and basso continuo, Op. 4: II. Largo sempre pianoDR14 -1.84 дБ -19.84 дБ 1:49 21-Overture in D Major from 'La Stravaganza' for strings and basso continuo, Op. 4: III. PrestoDR14 -1.46 дБ -19.78 дБ 4:00 22-Concerto in C Major for oboe, strings and basso continuo, RV 450: I. Allegro moltoDR12 -4.27 дБ -22.14 дБ 3:13 23-Concerto in C Major for oboe, strings and basso continuo, RV 450: II. LarghettoDR13 -2.76 дБ -20.69 дБ 2:49 24-Concerto in C Major for oboe, strings and basso continuo, RV 450: III. Allegro--------------------------------------------------------------------------------
Количество треков: 24Реальные значения DR: DR13
Частота: 96000 ГцКаналов: 2Разрядность: 24Битрейт: 2700 кбит/сКодек: FLAC================================================================================

Скриншот спектра частот



Об альбоме (сборнике)

This disc is an invitation to explore one of the great attractions of Venice in the Baroque era, the famous 'ospedali'. These were establishments that took care of and educated children and adolescents. In the early 18 century almost all the leading Venetian musicians were linked with the musical activities of one of the ospedali. The best-known among them was Antonio Vivaldi: just 25 when he was hired as violin teacher at the Ospedale della Pietà. Among the residents of the Pietà was a girl named Pellegrina, for whom Vivaldi wrote many of his oboe concertos. Accompanied by her colleagues of the Akademie für Alte Musik Berlin, oboist Xenia Löffler not only breathes new life into a selection of concertos by the ‘Red Priest', but also several by his emulators, among them a contemporary composer, Uri Rom.
The programme begins with a concerto composed by Rom [b. 1969] in 2013 to a commission from the Akademie für Alte Musik and dedicated to Xenia Löffler, one of today’s leading oboists. 'Concerto L’Olimpiade' is a sort of pasticcio based on works by Antonio Vivaldi and Carlo Tessarini. The first movement is based on the aria ‘Siam navi all’onde algenti’ from the opera' L’Olimpiade'. The second movement reflects the reception of the Italian style by J. S. Bach. The finale takes as its models a movement from a violin concerto by Vivaldi (RV 172) and a movement from a violin concerto by Tessarini. The solo part and the formal layout of the movement are new.
Since 2001 Xenia Löffler has been a member and principal oboist of the Akademie für Alte Musik, appearing regularly on international concert platforms as a soloist with that orchestra and with Collegium 1704 (Prague), the Batzdorfer Hofkapelle and the orchestra of the Halle Handel Festival.
Источник:



Ви не можете починати теми
Ви не можете відповідати на повідомлення
Ви не можете редагувати свої повідомлення
Ви не можете видаляти свої повідомлення
Ви не можете голосувати в опитуваннях
Ви не можете прикріплювати файли до повідомлень
Ви можете скачувати файли