[TR24][OF] Bach — Sonates pour flute et clavecin: BWV 1013, 1030, 1032, 1034, 1035 (Marc et Pierre Hantai) - 2018 (Classical)


Статистика роздачі [Оновити пиров]
Розмір:  1,25 GB   |    Зареєстрований:  1 рік   |    Скачано:  0 раз

Повного джерела не було: Ніколи

by Паночка ®
09-Бер-2018 20:17


[TR24][OF] Bach — Sonates pour flute et clavecin: BWV 1013, 1030, 1032, 1034, 1035 (Marc et Pierre Hantai) - 2018 (Classical)

Bach
Sonates pour flûte et clavecin

Mirare · No.MIR370  ·  2018 · web-release
FLAC · 24bit · 88khz · 01:14:42 · booklet
Marc Hantaï.........................flute
Pierre Hantaï.................harpsichord-

Tracklist

01-04. Flute Sonata in E Major, BWV 103505-07. Flute Sonata in B Minor, BWV 103008-11. Flute Sonata in E Minor, BWV 103412-15. Partita in A Minor, BWV 101316-18. Flute Sonata in A Major, BWV 1032

log

foobar2000 1.3.15 / Dynamic Range Meter 1.1.1log date: 2018-01-28 13:39:41
--------------------------------------------------------------------------------Analyzed: Marc Hantai, Pierre Hantai / J.S. Bach: Sonates pour flûte et clavecin--------------------------------------------------------------------------------
DR Peak RMS Duration Track--------------------------------------------------------------------------------DR11 -2.99 dB -18.94 dB 2:29 01-Flute Sonata in E Major, BWV 1035: I. AdagioDR12 -0.80 dB -17.95 dB 3:14 02-Flute Sonata in E Major, BWV 1035: II. AllegroDR11 -2.43 dB -20.08 dB 3:51 03-Flute Sonata in E Major, BWV 1035: III. SicilianaDR12 -1.56 dB -18.51 dB 3:11 04-Flute Sonata in E Major, BWV 1035: IV. Allegro assaiDR11 -1.20 dB -17.34 dB 8:22 05-Flute Sonata in B Minor, BWV 1030: I. AndanteDR10 -3.10 dB -18.70 dB 3:57 06-Flute Sonata in B Minor, BWV 1030: II. Largo e dolceDR11 -0.85 dB -16.80 dB 5:41 07-Flute Sonata in B Minor, BWV 1030: III. PrestoDR10 -2.22 dB -19.10 dB 3:07 08-Flute Sonata in E Minor, BWV 1034: I. Adagio ma non tantoDR13 -0.41 dB -18.93 dB 2:47 09-Flute Sonata in E Minor, BWV 1034: II. AllegroDR11 -4.49 dB -20.85 dB 3:23 10-Flute Sonata in E Minor, BWV 1034: III. AndanteDR12 -1.54 dB -18.44 dB 4:54 11-Flute Sonata in E Minor, BWV 1034: IV. Allegro assaiDR11 -4.78 dB -20.71 dB 4:30 12-Partita in A Minor, BWV 1013: I. AllemandeDR11 -5.17 dB -21.03 dB 3:39 13-Partita in A Minor, BWV 1013: II. CorrenteDR12 -4.91 dB -23.06 dB 5:35 14-Partita in A Minor, BWV 1013: III. SarabandeDR12 -4.94 dB -22.83 dB 2:52 15-Partita in A Minor, BWV 1013: IV. Bourée anglaiseDR12 -2.15 dB -19.18 dB 5:29 16-Flute Sonata in A Major, BWV 1032: I. AllegroDR12 -3.93 dB -21.87 dB 3:15 17-Flute Sonata in A Major, BWV 1032: II. Largo e dolceDR12 -2.05 dB -19.54 dB 4:28 18-Flute Sonata in A Major, BWV 1032: III. Vivace--------------------------------------------------------------------------------
Number of tracks: 18Official DR value: DR12
Samplerate: 88200 HzChannels: 2Bits per sample: 24Bitrate: 2492 kbpsCodec: FLAC================================================================================

range

01. Flute Sonata in E Major, BWV 1035 I. Adagio.flac



Ви не можете починати теми
Ви не можете відповідати на повідомлення
Ви не можете редагувати свої повідомлення
Ви не можете видаляти свої повідомлення
Ви не можете голосувати в опитуваннях
Ви не можете прикріплювати файли до повідомлень
Ви можете скачувати файли