[TR24][OF] Venezia Millenaria 700—1797 (La Capella Reial de Catalunya, Hesperion XXI, Le Concert des Nations, Jordi Savall) - 2018 (Classical, Medieval)


Статистика роздачі [Оновити пиров]
Розмір:  2,61 GB   |    Зареєстрований:  1 рік   |    Скачано:  0 раз

Повного джерела не було: Ніколи

by Паночка ®
09-Бер-2018 20:17


[TR24][OF] Venezia Millenaria 700—1797 (La Capella Reial de Catalunya, Hesperion XXI, Le Concert des Nations, Jordi Savall) - 2018 (Classical, Medieval)

Venezia  Millenaria  700—1797
Alia Vox · No.AVSA9925 · 2018 · web-release
FLAC · 24 bit · 88 khz · 02:35:01 · booklet
___________________________________________
Le Concert des Nations.....................
Hespèrion XXI..............................
La Capella Reial de Catalunya..............

Jordi Savall......................direction
Ensemble vocal Orthodoxe/Byzantin..........
Panagiotis Neochoritis............direction

Tracklist

01. Fanfare (Instrumental D’Après Une Mélodie Du Siècle VIII)02. Alléluia (Choral byzantin)03. Halatzoglou kratema (Instrumental byzantin)04. Chanson de Croisade: Pax in nomine Domini – Marcabru (1100-1150)05. Danse de l’âme (Afrique du Nord) [Instrumental] [Tradition Berbère]06. Hymne pour les services des Matins07. Chanson & Danse Arménienne (Xiiie Siècle)08. Conductus: O Totus Asie Gloria, Regis Alexandria Filia (Xiiie Siècle)09. Istampitta: Saltarello (mss. XIVe siècle)10. Pásan tin elpida mu11. Chiave, chiave (Instrumental) [Début du XVe siècle]12. Adoramus te (Chansonnier du XVe siècle)13. Hirmos Calophonique: Tin Déisin mu (XVe siècle)14. Marche Ottomane Nikriz peşrev – Ali Ufki Bey15. Lamentio Sanctae Matris Ecclesiae Constantinopolitanae16. La Guerre: La Bataille de Marignan17. Cantique des Cantiques (3,1-4): Qamti be-Ishon Layla18. Villanesca alla napolitana: Vecchie letrose19. Der makām-ı Uzzäl Sakîl (Instrumental ottoman)20. Madrigal: Oíd, oíd... [...las buenas nuevas de Lepanto]-01. Psaumes de David. Ficht wider meine Anfechter (Psaume 35)02. Géfsasthe ke idete03. Sousta (Instrumental) [Danse de Chypre]04. Ricercar VII05. Hymne de la Sainte Eucharistie (En slave)06. Laïla Djân (Instrumental) [Danse Perse]07. Psaume 137, (1-6): ’Al nàhärót bavél08. Il combattimento di Tancredi e Clorinda, SV 15309. Sinfonia Seconda10. Der Makām-i-Rehavi Çember-i-Koca (Marche ottomane)11. La Senna festeggiante, RV 693: Di queste selve venite, o Numi12. Alla turca (Allegretto) [D’après la Sonate No. 11 en La Majeur, K. 331 de Mozart]13. Deo gratias (Hymne Orthodoxe Russe du XVIè siècle)14. Chanson Constitutionnelle Nous sommes tous égaux15. Canzonette veneziane da battello. Raccolta di gondoliere: Per quel bel viso16. Mia cara Anzoletta17. La Sainte Ligue (La nuit est sombre) [D'après les Symphonies No. 5 et No. 7 de Beethoven]

Log

foobar2000 1.3.15 / Dynamic Range Meter 1.1.1log date: 2018-02-02 04:15:23
--------------------------------------------------------------------------------Analyzed: Jordi Savall / Venezia Millenaria 700−1797--------------------------------------------------------------------------------
DR Peak RMS Duration Track--------------------------------------------------------------------------------DR12 -8.52 dB -24.45 dB 1:11 01-Fanfare (Instrumental D’Après Une Mélodie Du Siècle VIII)DR11 -9.41 dB -23.61 dB 5:27 02-Alléluia (Choral byzantin)DR13 -4.07 dB -22.50 dB 1:45 03-Halatzoglou kratema (Instrumental byzantin)DR15 -2.62 dB -23.05 dB 2:56 04-Chanson de Croisade: Pax in nomine Domini – Marcabru (1100-1150)DR13 -9.07 dB -26.18 dB 2:44 05-Danse de l’âme (Afrique du Nord) [Instrumental] [Tradition Berbère]DR12 -9.35 dB -24.63 dB 6:51 06-Hymne pour les services des MatinsDR11 -3.92 dB -23.21 dB 2:36 07-Chanson & Danse Arménienne (Xiiie Siècle)DR11 -6.98 dB -20.87 dB 2:19 08-Conductus: O Totus Asie Gloria, Regis Alexandria Filia (Xiiie Siècle)DR13 -1.98 dB -18.42 dB 2:25 09-Istampitta: Saltarello (mss. XIVe siècle)DR13 -8.30 dB -24.84 dB 4:36 10-Pásan tin elpida muDR13 -3.78 dB -19.29 dB 1:20 11-Chiave, chiave (Instrumental) [Début du XVe siècle]DR10 -5.44 dB -19.75 dB 2:58 12-Adoramus te (Chansonnier du XVe siècle)DR11 -10.58 dB -25.80 dB 5:26 13-Hirmos Calophonique: Tin Déisin mu (XVe siècle)DR13 -0.30 dB -16.94 dB 2:08 14-Marche Ottomane Nikriz peşrev – Ali Ufki BeyDR13 -2.66 dB -21.94 dB 7:43 15-Lamentio Sanctae Matris Ecclesiae ConstantinopolitanaeDR12 -0.30 dB -14.86 dB 7:22 16-La Guerre: La Bataille de MarignanDR14 -6.43 dB -26.75 dB 3:20 17-Cantique des Cantiques (3,1-4): Qamti be-Ishon LaylaDR14 -0.34 dB -17.63 dB 2:47 18-Villanesca alla napolitana: Vecchie letroseDR15 -0.30 dB -19.57 dB 4:22 19-Der makām-ı Uzzäl Sakîl (Instrumental ottoman)DR13 -2.72 dB -19.69 dB 6:02 20-Madrigal: Oíd, oíd... [...las buenas nuevas de Lepanto]DR12 -5.36 dB -20.48 dB 2:13 01-Psaumes de David. Ficht wider meine Anfechter (Psaume 35)DR12 -2.19 dB -19.44 dB 4:31 02-Géfsasthe ke ideteDR12 -4.69 dB -19.36 dB 1:59 03-Sousta (Instrumental) [Danse de Chypre]DR12 -3.97 dB -20.87 dB 2:36 04-Ricercar VIIDR11 -6.20 dB -22.17 dB 2:23 05-Hymne de la Sainte Eucharistie (En slave)DR13 -2.61 dB -19.36 dB 2:35 06-Laïla Djân (Instrumental) [Danse Perse]DR12 -5.74 dB -20.56 dB 3:34 07-Psaume 137, (1-6): ’Al nàhärót bavélDR18 -0.30 dB -23.29 dB 16:52 08-Il combattimento di Tancredi e Clorinda, SV 153DR12 -1.90 dB -19.63 dB 4:14 09-Sinfonia SecondaDR12 -0.97 dB -17.12 dB 3:05 10-Der Makām-i-Rehavi Çember-i-Koca (Marche ottomane)DR13 -0.30 dB -16.27 dB 4:12 11-La Senna festeggiante, RV 693: Di queste selve venite, o NumiDR12 -0.30 dB -17.19 dB 4:10 12-Alla turca (Allegretto) [D’après la Sonate No. 11 en La Majeur, K. 331 de Mozart]DR11 -4.73 dB -19.76 dB 7:26 13-Deo gratias (Hymne Orthodoxe Russe du XVIè siècle)DR11 -2.80 dB -17.18 dB 2:40 14-Chanson Constitutionnelle Nous sommes tous égauxDR13 -2.39 dB -20.41 dB 3:43 15-Canzonette veneziane da battello. Raccolta di gondoliere: Per quel bel visoDR13 -2.31 dB -20.61 dB 2:50 16-Canzonette veneziane da battello. Raccolta di gondoliere: Mia cara AnzolettaDR13 -0.58 dB -19.42 dB 9:41 17-La Sainte Ligue (La nuit est sombre) [D'après les Symphonies No. 5 et No. 7 de Beethoven]--------------------------------------------------------------------------------
Number of tracks: 37Official DR value: DR12
Samplerate: 88200 HzChannels: 2Bits per sample: 24Bitrate: 2424 kbpsCodec: FLAC================================================================================

Range

1.03 Halatzoglou kratema (Instrumental byzantin).flac



Ви не можете починати теми
Ви не можете відповідати на повідомлення
Ви не можете редагувати свої повідомлення
Ви не можете видаляти свої повідомлення
Ви не можете голосувати в опитуваннях
Ви не можете прикріплювати файли до повідомлень
Ви можете скачувати файли