[TR24][OF] Прокофьев — Концерт для скрипки с оркестром, № 1 и № 2, соч. 19 и 63; Переложения из «Золушка»; «Ромео и Джульетта»; «Любовь к трём апельсинам» (Lisa Batiashvili, Chamber Orchestra of Europe, Yannick Nezet-Seguin) - 2018 (Classical)


Статистика роздачі [Оновити пиров]
Розмір:  1,16 GB   |    Зареєстрований:  1 рік   |    Скачано:  0 раз

Повного джерела не було: Ніколи

by Паночка ®
09-Бер-2018 20:17


[TR24][OF] Прокофьев — Концерт для скрипки с оркестром, № 1 и № 2, соч. 19 и 63; Переложения из «Золушка»; «Ромео и Джульетта»; «Любовь к трём апельсинам» (Lisa Batiashvili, Chamber Orchestra of Europe, Yannick Nezet-Seguin) - 2018 (Classical)

Visions of Prokofiev
DG · No. 4798529 · 2018 · web · trailer
FLAC · 24bit · 96khz · 00:59:48 · booklet
_________________________________________
Lisa Batiashvili...................violin
Chamber Orchestra of Europe..............
Yannick Nézet-Séguin............conductor

Tracklist

01.    Romeo and Juliet, Op. 64: Dance Of The Knights02-04. Violin Concerto No. 1 in D major, Op. 1905.    Cinderella, Op. 87: Grand Waltz06-08. Violin Concerto No. 2 in G minor, Op. 6309.    The Love for Three Oranges, Op. 33: Grand March

Log

foobar2000 1.3.15 / Dynamic Range Meter 1.1.1log date: 2018-02-02 13:00:23
--------------------------------------------------------------------------------Analyzed: Lisa Batiashvili / Visions Of Prokofiev--------------------------------------------------------------------------------
DR Peak RMS Duration Track--------------------------------------------------------------------------------DR12 -0.55 dB -16.92 dB 3:46 01-Romeo and Juliet, Op. 64 Dance Of The KnightsDR15 -4.60 dB -26.76 dB 9:58 02-Violin Concerto No. 1 in D major, Op. 19: 1. AndantinoDR15 -0.40 dB -21.22 dB 3:52 03-Violin Concerto No. 1 in D major, Op. 19: 2. Scherzo. VivacissimoDR15 -1.55 dB -23.18 dB 8:58 04-Violin Concerto No. 1 in D major, Op. 19: 3. ModeratoDR13 -3.28 dB -23.04 dB 5:19 05-Cinderella, Op. 87 Grand WaltzDR15 -2.96 dB -23.77 dB 10:44 06-Violin Concerto No. 2 in G minor, Op. 63: 1. Allegro moderatoDR14 -4.51 dB -24.96 dB 9:17 07-Violin Concerto No. 2 in G minor, Op. 63: 2. Andante assaiDR16 -1.70 dB -21.63 dB 6:18 08-Violin Concerto No. 2 in G minor, Op. 63: 3. Allegro, ben marcatoDR15 -0.24 dB -20.81 dB 1:37 09-The Love for Three Oranges, Op. 33 Grand March--------------------------------------------------------------------------------
Number of tracks: 9Official DR value: DR15
Samplerate: 96000 HzChannels: 2Bits per sample: 24Bitrate: 2796 kbpsCodec: FLAC================================================================================

Range

01 Romeo and Juliet, Op. 64 Dance Of The Knights.flac



Ви не можете починати теми
Ви не можете відповідати на повідомлення
Ви не можете редагувати свої повідомлення
Ви не можете видаляти свої повідомлення
Ви не можете голосувати в опитуваннях
Ви не можете прикріплювати файли до повідомлень
Ви можете скачувати файли