[TR24][OF] Sonya Yoncheva - The Verdi Album (Münchner Rundfunkorchester, Massimo Zanetti) - 2018 (Classical, Vocal)


Статистика роздачі [Оновити пиров]
Розмір:  948 MB   |    Зареєстрований:  1 рік   |    Скачано:  0 раз

Повного джерела не було: Ніколи

by Паночка ®
09-Бер-2018 20:17


[TR24][OF] Sonya Yoncheva - The Verdi Album (Münchner Rundfunkorchester, Massimo Zanetti) - 2018 (Classical, Vocal)

SONYA YONCHEVA - THE VERDI ALBUM Формат записи/Источник записи: [TR24][OF]
Наличие водяных знаков: Нет
Год издания/переиздания диска: 2018
Жанр: Classical, Vocal
Издатель (лейбл): SONY Classical
Продолжительность: 54:00
Наличие сканов в содержимом раздачи: Буклет PDF+обложка
Контейнер: FLAC (*.flac)
Тип рипа: tracks
Разрядность: 24/96
Формат: PCM
Количество каналов: 2.0

Tracklist

01. Il trovatore: Tacea la notte placida ... Di tale amor che dirsi (6:53)02. Luisa Miller: Tu puniscimi, o Signore (3:07)03. Attila: Liberamente or piangi ... Oh! Nel fuggente nuvolo (5:58)04. Stiffelio: Tosto ei disse! ... A te ascenda, o Dio clemente  (3:54)05. La forza del destino: Pace! Pace, mio Dio! (5:53)06. Otello: Ave Maria, piena di grazia  (5:24)07. Simon Boccanegra: Come in quest'ora bruna (6:20)08. Don Carlo: Tu che le vanità ... Francia, nobile suol (10:59)09. Nabucco: Anch'io dischiuso un giorno ... Salgo già del trono aurato  (6:09)

Official DR value: DR13

foobar2000 1.3.14 / Замер динамического диапазона (DR) 1.1.1Дата отчёта:  2018-02-02 19:39:28
--------------------------------------------------------------------------------Анализ: Sonya Yoncheva/Michaela Wiesbeck/Angelo Zanardini/Achille de Lauzière-Thémines/Joseph Méry/Münchner Rundfunkorchester/Camille du Locle / Sonya Yoncheva - Verdi (1) Sonya Yoncheva/Michaela Wiesbeck/Arrigo Boito/Münchner Rundfunkorchester / Sonya Yoncheva - Verdi (2) Sonya Yoncheva/Michaela Wiesbeck/Francesco Maria Piave/Münchner Rundfunkorchester / Sonya Yoncheva - Verdi (3-5) Sonya Yoncheva/Michaela Wiesbeck/Salvatore Cammarano/Münchner Rundfunkorchester / Sonya Yoncheva - Verdi (6-7) Sonya Yoncheva/Michaela Wiesbeck/Temistocle Solera/Münchner Rundfunkorchester/Francesco Maria Piave / Sonya Yoncheva - Verdi (8) Sonya Yoncheva/Michaela Wiesbeck/Temistocle Solera/Münchner Rundfunkorchester / Sonya Yoncheva - Verdi (9)--------------------------------------------------------------------------------
DR Пики RMS Продолжительность трека--------------------------------------------------------------------------------DR12 -0.20 дБ -17.98 дБ 6:53 01-Il trovatore: Tacea la notte placida ... Di tale amor che dirsiDR13 -0.52 дБ -21.40 дБ 3:07 02-Luisa Miller: Tu puniscimi, o SignoreDR13 -3.65 дБ -22.86 дБ 5:58 03-Attila: Liberamente or piangi ... Oh! Nel fuggente nuvoloDR12 -2.41 дБ -21.14 дБ 3:54 04-Stiffelio: Tosto ei disse! ... A te ascenda, o Dio clementeDR14 -0.20 дБ -19.35 дБ 5:53 05-La forza del destino: Pace! Pace, mio Dio!DR15 -4.58 дБ -27.82 дБ 5:24 06-Otello: Ave Maria, piena di graziaDR14 -0.32 дБ -22.40 дБ 6:20 07-Simon Boccanegra: Come in quest'ora brunaDR13 -0.20 дБ -18.91 дБ 10:59 08-Don Carlo: Tu che le vanità ... Francia, nobile suolDR12 -0.20 дБ -17.77 дБ 6:09 09-Nabucco: Anch'io dischiuso un giorno ... Salgo già del trono aurato--------------------------------------------------------------------------------Количество треков: 9Реальные значения DR: DR13
Частота: 96000 ГцКаналов: 2Разрядность: 24Битрейт: 2418 кбит/сКодек: FLAC================================================================================

Спектры частот



Об альбоме (сборнике)

Soprano Sonya Yoncheva has dedicated her latest release to the music of Verdi. This album includes arias ranging from Verdi’s most celebrated works—including Don Carlo and Otello— to some lesser-known gems. Sonya commences her European tour with Verdi repertoire in February. Sonya has already received outstanding reviews for her interpretation of Verdi’s roles. The New York Times said of her performance of Desdemona "Her Desdemona shows why she is looking towards a major career". "Yoncheva is a force of nature" - BBC Music Magazine
Источник:



Ви не можете починати теми
Ви не можете відповідати на повідомлення
Ви не можете редагувати свої повідомлення
Ви не можете видаляти свої повідомлення
Ви не можете голосувати в опитуваннях
Ви не можете прикріплювати файли до повідомлень
Ви можете скачувати файли